Видео


Сообщение

Видео Узбекская кухня (Сева Бабахан, Олег Юсупов) [1999 г., Методический, VHSRip]

Сообщение Nik » 20 сен 2013, 00:46

Узбекская кухня
Год выпуска: 1999
Страна: Узбекистан
Жанр: Методический
Продолжительность: 00:58:37
Перевод: Не требуется
Источник: собственный рип

Режиссеры: Сева Бабахан, Олег Юсупов

Автор и закадровый комментарий: Леонард Бабаханов
Демонстрация приготовления следующих блюд:
Шурпа, Лагман, Манты, Хунон, Димлама, Рыба по-Фергански,
Чучвара, Кебоб, Плов, Шакароб

Аудиоряд реставрирован, дополнительно снижен уровень
громкости национальных инструментов в паузах между комментариями,
т.к. сложно сосредоточиться при "сверлящих" звуках.
Плюс некоторые длинные музыкальные паузы заполнил
фрагментами песен современной узбекской певицы (Shahzoda).
(Assalomu aleykum, O'zbekiston, Sevgi sotilmas)

17 марта 2010.
Гости, пожалуйста, не флудите в постах!
Отвечаю на несколько раз заданный вопрос:
второй и иных частей в инете не обнаружил


Качество: VHSRip
Формат: AVI
Видео кодек: XviD
Аудио кодек: AC3
Видео: 1837 Кбит/с, 676*466, 29,97 к/с
Аудио: 2 ch, 448 Кбит/с, 44,1 кГц
Скриншоты
Тех. данные
General

Complete name : UzbekskayaKuchnya_1999_XviD_VHSRip.avi
Format : AVI
Format/Info : Audio Video Interleave
File size : 963 MiB
Duration : 58mn 37s
Overall bit rate : 2 297 Kbps
Writing application : VirtualDubMod 1.5.10.2 (build 2540/release)
Writing library : VirtualDub build 29808/release

Video

Format : MPEG-4 Visual
Format profile : Streaming Video@L1
Format settings, BVOP : Yes
Format settings, QPel : No
Format settings, GMC : No warppoints
Format settings, Matrix : Default
Muxing mode : Packed bitstream
Codec ID : XVID
Codec ID/Hint : XviD
Duration : 58mn 37s
Bit rate : 1 837 Kbps
Width : 676 pixels
Height : 466 pixels
Display aspect ratio : 1.451
Frame rate : 29.970 fps
Resolution : 24 bits
Colorimetry : 4:2:0
Scan type : Progressive
Bits/(Pixel*Frame) : 0.195
Stream size : 770 MiB (80%)
Writing library : XviD 1.2.0.dev47 (UTC 2006-11-01)

Audio

Format : AC-3
Format/Info : Audio Coding 3
Codec ID : 2000
Duration : 58mn 37s
Bit rate mode : Constant
Bit rate : 448 Kbps
Channel(s) : 2 channels
Channel positions : L R
Sampling rate : 44.1 KHz
Stream size : 188 MiB (20%)
Alignment : Aligned on interleaves
Interleave, duration : 35 ms (1.04 video frame)
Interleave, preload duration : 522 ms
Мои раздачи

Постеры

Соцсети

 

Статистика

Автор: Nik
Добавлен: 20 сен 2013, 00:46
Размер: 963.11 МБ
Размер: 1 009 892 536 байт
Сидеров: 0
Личеров: 1
Скачали: 0
Здоровье: ???%
Скорость скачивания: 0 байт/сек
Скорость раздачи: 0 байт/сек
Последний сидер: Нет
Последний личер: 1 год 4 месяца 30 дней 22 часа 1 минуту 8 секунд назад
Приватный: Нет (DHT включён)
Кулинария Скачать торрент
Скачать торрент
[ Размер 150.99 КБ / Просмотров 2 ]

Поделиться



Вернуться в Кулинария