Видео


Сообщение

Видео Краснодарский чай [2009 г., Документальный, DVB]

Сообщение Nik » 20 сен 2013, 00:48

Краснодарский чай

Год выпуска: 2009
Жанр: Документальный
Страна: Россия
Продолжительность: 00:24:04

Описание: Каждый житель России знает, каков на вкус Краснодарский чай - в меру терпкий, ароматный и удивительно бодрящий. Но мало кто помнит, что этот сорт классического черного чая - самый северный промышленно выращиваемый сорт в мире. В фильме о краснодарском чае раскрываются секреты и особенности его выращивания - вы попадете на чайную плантацию в разгар сбора урожая и конечно - на ни с чем не сравнимую дегустацию.

Качество: DVB
Формат: MPEG
Видео кодек: MPEG2
Аудио кодек: MPEG1 Layer 2
Видео: MPEG2 Video 704x576 (4:3) 25.00fps 5 368 Kbps, 0.529 bit/pixel
Аудио: MPEG Audio 48000Hz 2 channels 192 Кбит/сек
Mediainfo
Complete name : F:\TORENTRAZDACHI\RTGTV\Краснодарский чай_DVB_by_CLIPMAN.mpg
Format : MPEG-PS
File size : 977 MiB
Duration : 24mn 5s
Overall bit rate : 5 672 Kbps

Video
ID : 224 (0xE0)
Format : MPEG Video
Format version : Version 2
Format profile : Main@Main
Format settings, BVOP : Yes
Format settings, Matrix : Default
Format settings, GOP : M=2, N=30
Duration : 24mn 5s
Bit rate mode : Variable
Bit rate : 5 368 Kbps
Nominal bit rate : 15.0 Mbps
Width : 704 pixels
Height : 576 pixels
Display aspect ratio : 4:3
Frame rate : 25.000 fps
Standard : PAL
Color space : YUV
Chroma subsampling : 4:2:0
Bit depth : 8 bits
Scan type : Interlaced
Scan order : Top Field First
Bits/(Pixel*Frame) : 0.529
Stream size : 925 MiB (95%)

Audio
ID : 192 (0xC0)
Format : MPEG Audio
Format version : Version 1
Format profile : Layer 2
Duration : 24mn 5s
Bit rate mode : Constant
Bit rate : 192 Kbps
Channel(s) : 2 channels
Sampling rate : 48.0 KHz
Stream size : 33.1 MiB (3%)
Скриншоты

Постеры

Соцсети

 

Статистика

Автор: Nik
Добавлен: 20 сен 2013, 00:48
Размер: 977.24 МБ
Размер: 1 024 708 608 байт
Сидеров: 0
Личеров: 1
Скачали: 0
Здоровье: ???%
Скорость скачивания: 0 байт/сек
Скорость раздачи: 0 байт/сек
Последний сидер: Нет
Последний личер: 1 год 2 месяца 4 дня 23 часа 25 минут 26 секунд назад
Приватный: Нет (DHT включён)
Кулинария Скачать торрент
Скачать торрент
[ Размер 38.69 КБ / Просмотров 2 ]

Поделиться



Вернуться в Кулинария