Видео


Сообщение

Видео Это все еда (Слово на букву "е"). Избранное. / The Best of the F Word [2007, IPTVRip, RUS]

Сообщение Nik » 20 сен 2013, 00:58

Это все еда (Слово на букву "е"). Избранное. / The Best of the F Word

Страна: Великобритания
Тип раздаваемого материала: кулинария
Продолжительность: 00:47:27
Год выпуска: 2007

Язык: Русский
Перевод: Профессиональный (двухголосый)

Описание: В этом специальном выпуске программы: лучшие путешествия, лучшие гости и десять лучших рецептов от Гордона Рамзи.

Доп. информация: Непережатый поток с IPTV трансляции.
http://www.imdb.com/title/tt1601988/

Качество: IPTVRip
Формат: MPG
Видео кодек: MPEG2
Аудио кодек: MP2
Видео: MPEG2 Video, 720x576(4:3), 25fps, 2 930 Kbps
Аудио: MPEG Audio, 48000Hz, stereo, 192kbps
Это все еда. Лучшее.mpg.MediaInfo
General
Complete name : E:\Serial\The F Word\Это все еда. Лучшее.mpg
Format : MPEG-PS
File size : 1.06 GiB
Duration : 47mn 26s
Overall bit rate mode : Variable
Overall bit rate : 3 186 Kbps

Video
ID : 224 (0xE0)
Format : MPEG Video
Format version : Version 2
Format profile : Main@Main
Format settings, BVOP : Yes
Format settings, Matrix : Custom
Format settings, GOP : M=2, N=33
Duration : 47mn 26s
Bit rate mode : Variable
Bit rate : 2 930 Kbps
Maximum bit rate : 15.0 Mbps
Width : 720 pixels
Height : 576 pixels
Display aspect ratio : 4:3
Frame rate : 25.000 fps
Standard : PAL
Color space : YUV
Chroma subsampling : 4:2:0
Bit depth : 8 bits
Scan type : Interlaced
Scan order : Top Field First
Compression mode : Lossy
Bits/(Pixel*Frame) : 0.283
Stream size : 994 MiB (92%)
Matrix coefficients : BT.601

Audio
ID : 192 (0xC0)
Format : MPEG Audio
Format version : Version 1
Format profile : Layer 2
Duration : 47mn 26s
Bit rate mode : Constant
Bit rate : 192 Kbps
Channel(s) : 2 channels
Sampling rate : 48.0 KHz
Compression mode : Lossy
Stream size : 65.2 MiB (6%)
Скриншоты

Постеры

Соцсети

 

Статистика

Автор: Nik
Добавлен: 20 сен 2013, 00:58
Размер: 1.06 ГБ
Размер: 1 133 500 420 байт
Сидеров: 0
Личеров: 0
Скачали: 0
Здоровье: 0%
Скорость скачивания: 0 байт/сек
Скорость раздачи: 0 байт/сек
Последний сидер: Нет
Последний личер: Нет
Приватный: Нет (DHT включён)
Кулинария Скачать торрент
Скачать торрент
[ Размер 11.06 КБ / Просмотров 0 ]

Поделиться



Вернуться в Кулинария