Видео


Сообщение

Видео Секреты татарской кухни [2012, Кулинарное телешоу, TVRip, RUS]

Сообщение Nik » 20 сен 2013, 01:09

Секреты татарской кухни (2012)

Страна: Россия (Республика Татарстан)
Производство: телестудия ALIEN TV (г.Казань)
Тематика: Кулинарное телешоу
Продолжительность: 26 мин
Год выпуска: 2012
Язык: Русский
Язык субтитров: нет
Описание: Кулинарное шоу с участием ведущего Руслана Шарафутдинова и приглашённых известных гостей. И конечно же, рецепты блюд, связанных с историей Татарстана, любимых на его территории и далеко за его пределами.

Доп. информация: Телезапись с телевидения Татарстан-Новый Век.
Бонус: 4 передачи за декабрь 2011 г.
Сайт производителя: http://www.alientv.ru/secrety_tat_kuhni.html
Альтернативная раздача : http://rutracker.org/forum/viewtopic.php?t=3631035

Источник: собственный рип
Качество: TVRip
Формат: AVI
Видео кодек: XviD
Аудио кодек: MP3
Видео:
720x576 (5:4), 25 fps, XviD, MPEG-4 Visual, 1200 kbps avg
688x544 (4:3), 25 fps, XviD, MPEG-4 Visual, 1200 kbps avg
720x544 (4:3), 25 fps, XviD, MPEG-4 Visual, 1200 kbps avg
Аудио: 48 kHz, MPEG Layer 3, 2 ch mono, 128.00 kbps avg
MediaInfo 19.12.2012
Общее
Полное имя : C:\49_16.12.2012_Гульназ Сафарова_Тутырган беренге.avi
Формат : AVI
Формат/Информация : Audio Video Interleave
Размер файла : 247 Мбайт
Продолжительность : 25 м.
Общий поток : 1338 Кбит/сек
Название фильма : CTK_49_16.12.2012
Режиссёр : AlienTV.ru_THB
Программа кодирования : VirtualDubMod_1.5.10.2
Библиотека кодирования : VirtualDub build 32507/release
Примечание : IPTVRip by Smeagol6666

Видео
Идентификатор : 0
Формат : MPEG-4 Visual
Профиль формата : Advanced Simple@L5
Параметр BVOP формата : 2
Параметр QPel формата : Нет
Параметр GMC формата : Без точки перехода
Параметр матрицы формата : Default (H.263)
Режим смешивания : Сжатый битовый поток
Идентификатор кодека : XVID
Идентификатор кодека/Подсказка : XviD
Продолжительность : 25 м.
Битрейт : 1200 Кбит/сек
Ширина : 720 пикселей
Высота : 544 пикселя
Соотношение сторон : 4:3
Частота кадров : 25,000 кадров/сек
Цветовое пространство : YUV
Субдискретизация насыщенности : 4:2:0
Битовая глубина : 8 бит
Тип развёртки : Прогрессивная
Метод сжатия : С потерями
Бит/(Пиксели*Кадры) : 0.123
Размер потока : 221 Мбайт (90%)
Библиотека кодирования : XviD 1.1.0 (UTC 2005-11-22)

Аудио
Идентификатор : 1
Формат : MPEG Audio
Версия формата : Version 1
Профиль формата : Layer 3
Режим : Joint stereo
Расширение режима : MS Stereo
Идентификатор кодека : 55
Идентификатор кодека/Подсказка : MP3
Продолжительность : 25 м.
Вид битрейта : Постоянный
Битрейт : 128 Кбит/сек
Каналы : 2 канала
Частота : 48,0 КГц
Метод сжатия : С потерями
Размер потока : 23,6 Мбайт (10%)
Выравнивание : Разделение по промежуткам
Продолжительность промежутка : 40 мс. (1,00 видеокадр)
Время предзагрузки промежутка : 500 мс.
Внимание! Раздача ведётся путём добавления новых выпусков
Обновляемая раздача.
Как закачать отдельный файл из торрента или докачать ранее пропущенные файлы торрента!
http://rutracker.org/forum/viewtopic.php?t=609808
При каждом добавлении создётся новый торрент. Чтобы начать докачку новой серии, пользователям необходимо сделать следующее:
(1) остановить скачивание,
(2) удалить старый торрент у себя из клиента (старые серии удалять не надо),
(3) скачать новый торрент и запустить его у себя в клиенте вместо старого, при этом указать клиенту путь в старую папку куда и должно происходить скачивание новых серий.
Ваш клиент при этом должен произвести хеширование (проверку) старой папки (если не производит сам - помогите ему сделать это), и будет докачивать только те серии которых у вас ещё нет. Старые серии при этом не удаляются, а продолжают раздаваться!
Eсли вы уже удалили старые серии, то предотвратить повторную закачку старых серий можно, отжав галочку в соответсвующих местах при запуске нового торрента.
Скриншоты
Список телепередач:
Бонус: 4 передачи за декабрь 2011 г. :
04.12.2011_Ильдар Киямов_Солянка по-татарски
11.12.2011_Альбина Абсалямова_Азу по-татарски
18.12.2011_Миляуша Таминдарова_Рыба
25.12.2011_Ризида Хусаинова_Гусь фаршированный

2012:

15.01.2012_Ильфат Абдрахманов_Белиш
22.01.2012_Раяз Фасихов_Баранина
29.01.2012_Катя Борисова_Шурпа по-борисовски

05.02.2012_Ильназ Сафиуллин_Ачык-пирог (Пицца по-татарски)
12.02.2012_Альмира Бурханова_Куллама (Бишбармак)
19.02.2012_Ильсур Сафин_Конина с чесноком и хреном
26.02.2012_Михаэль Левальдер_Греческая кухня

04.03.2012_Анас Халиуллин_Блюдо амурских татар
11.03.2012_Группа Эссе_Плов
18.03.2012_Ольга Чупина_Ачык перемяч (Перемечи)
25.03.2012_Изольда Сахарова_Кыстыбый (лепёшка с начинкой)

01.04.2012_Ильдар Ахметов_Биюрганская рыба (запечена с овощами)
08.04.2012_Хания Фархи_3 блюда
15.04.2012_Лидия Ахметова_Чумар аши (суп из теста)
22.04.2012_Ильфар Каримов_2 блюда (креветки+жюльен)
29.04.2012_Чулпан Закирова_Танцевальный плов (с морепродуктами)

06.05.2012_Булат Нигматуллин_Тыква с мёдом
13.05.2012_Александр Славутский_Баранья нога
20.05.2012_Юбилей (100-й выпуск)
27.05.2012_Искандер Биктагиров_Гороховый суп с кониной

03.06.2012_Владимир Яковлев_Дачная уха
10.06.2012_Реваль Фатхуллин_Упкэ баур перемячэ
17.06.2012_Алмаз Фатыхов_2 блюда
24.06.2012_Ильназ Бах_Тун астындагы ит бэлеше

01.07.2012_Рамзия Файзуллина_Дучмак (ватрушка)
08.07.2012_Ильмира Нагимова_Манты
15.07.2012_Александр Максимов_Тушёная индейка
22.07.2012_Ленар Сайфиев_Рыба по-камски
29.07.2012_Константин Рыжайкин_Кушак такмач и алсу

05.08.2012_Алина Баширова_Белеш
12.08.2012_Ренат Салаватов_Куырдак с печенью
19.08.2012_Евгений Юджин_Курица с грибами
26.08.2012_Роза Адиятуллина_Бэккен с субпродуктами

02.09.2012_Мурат Гайсин_Димлама
09.09.2012_Айнур Муратов_Дучмак (ватрушка)
16.09.2012_Егор Кончаловский_Токмач (суп-лапша)
23.09.2012_Владимир Васильев_Кабачковый торт
30.09.2012_Гульзада Руденко_Кыздырма с бараниной и овощами

07.10.2012_Павел Шмаков_Карась по-домашнему
14.10.2012_Казан егетлэре_Алма пирогы_Хан пирогы
21.10.2012_Марат Низамов_Золотая Орда (баранина с овощами)
28.10.2012_Булат и Диля Нигматуллины_ Элеш с курицей

04.11.2012_Фаниль Фахретдинов_ Борай аши (суп с полбой)
11.11.2012_Игорь Колодинский_Баклажаны
18.11.2012_Александр Ломинский_Баранина по-казански
25.11.2012_Ирек Шарипов_Молочный суп

02.12.2012_Ольга Скепнер_Кабартма
09.12.2012_Нуриевы_пирог Кудряшка
16.12.2012_Гульназ Сафарова_Тутырган беренге

Постеры

Соцсети

 

Статистика

Автор: Nik
Добавлен: 20 сен 2013, 01:09
Размер: 13.46 ГБ
Размер: 14 449 485 588 байт
Сидеров: 0
Личеров: 2
Скачали: 0
Здоровье: ???%
Скорость скачивания: 0 байт/сек
Скорость раздачи: 0 байт/сек
Последний сидер: Нет
Последний личер: 11 месяцев 8 дней 18 часов 32 минуты 6 секунд назад
Приватный: Нет (DHT включён)
Кулинария Скачать торрент
Скачать торрент
[ Размер 73.69 КБ / Просмотров 4 ]

Поделиться



  • Похожие торренты
    Ответы
    Просмотры
    Последнее сообщение

Вернуться в Кулинария