Видео


Сообщение

Видео Дом у реки - Весна.Лето.Осень.Зима/ River Cottage Spring.River Cottage Summer's Here.River Cottage Autumn .River Cottage: Winter's On The Way[2008, Кулинарный, документальный сериал, TVRip]

Сообщение Nik » 20 сен 2013, 01:10

Дом у реки - Весна.Лето.Осень.Зима/ River Cottage Spring.River Cottage Summer's Here.River Cottage Autumn.River Cottage Winter's On The Way

#77#77#77Страна: Англия
Тематика: Кулинарный, документальный сериал
Тип раздаваемого материала: Видеоурок
Продолжительность: ~00:46:00 серия
Год выпуска: 2008-2009
Язык: Русский
Перевод: Профессиональный (одноголосый)
Язык субтитров: нет
В главной роли : Хью Фернли-Уиттингстол

Доп. информация
:

Описание: Дом у реки - Весна. River Cottage Spring
Режиссёр: Сали Вингейт
Весна,в полях в хлевах и на грядках - повсюду появляется новая жизнь.
Пришла пора пробовать и первые плоды весеннего урожая
Описание
: Дом у реки - Лето. River Cottage Summer's Here
Режиссёр: Дэвид Джонсон
В петний сезон Хью будет развивать свои новаторские кулинарные идеи любителя овощей и ягод
Нас ждут новые блюда и летние рецепты как всегда в необычных сочетаниях из сада и огорода
Описание
: Дом у реки - Осень. River Cottage Autumn
Режиссёр: Ник Гуттридж
Осень - время пожинать плоды наших трудов,весенние посевы созрели и готовы к тому чтобы быть поданными к столу
В течении четырёх недель Хью будет собирать урожай,заготавливать корм для скота,охотиться,готовить и есть лучшие дары осени
Описание
: Дом у реки - Зима.River Cottage Winter's On The Way
Режиссёр: Ричард Хилл
Долгую зиму Хью собирается превратить в интересную и насыщенную пору года,в этом ему поможет его приятель
и большой гурман Джон Райт,нас ждут новые блюда которые будут наградой за год тяжелой работы
Качество
: TVRip
Формат: MKV
Видео кодек: H.264
Аудио кодек: AC3
Видео: H.264,720x424,1.69,1 556 Kbps,25.fps,0.20bit/pixel
Аудио: AC-3,192Kbps,48.0KHz,2channels
Информация MediaInfo
General
Format : Matroska
Format version : Version 2
File size : 573 MiB
Duration : 45mn 48s
Overall bit rate : 1 750 Kbps
Encoded date : UTC 2012-06-25 11:03:31
Writing application : mkvmerge v4.6.0 ('Still Crazy After All These Years') сборка от Apr 1 2011 21:01:49
Writing library : libebml v1.2.0 + libmatroska v1.1.0

Video
ID : 1
Format : AVC
Format/Info : Advanced Video Codec
Format profile : High@L3.0
Format settings, CABAC : Yes
Format settings, ReFrames : 4 frames
Codec ID : V_MPEG4/ISO/AVC
Duration : 45mn 48s
Bit rate : 1 556 Kbps
Width : 720 pixels
Height : 424 pixels
Display aspect ratio : 1.698
Frame rate : 25.000 fps
Color space : YUV
Chroma subsampling : 4:2:0
Bit depth : 8 bits
Scan type : Progressive
Bits/(Pixel*Frame) : 0.204
Stream size : 499 MiB (87%)
Writing library : x264 core 115 r1937 aa21558
Encoding settings : cabac=1 / ref=1 / deblock=1:-1:-1 / analyse=0x3:0x133 / me=umh / subme=7 / psy=1 / psy_rd=1.00:0.20 / mixed_ref=0 / me_range=16 / chroma_me=1 / trellis=2 / 8x8dct=1 / cqm=0 / deadzone=21,11 / fast_pskip=0 / chroma_qp_offset=-3 / threads=3 / sliced_threads=0 / nr=0 / decimate=0 / interlaced=0 / bluray_compat=0 / constrained_intra=0 / bframes=3 / b_pyramid=2 / b_adapt=2 / b_bias=0 / direct=3 / weightb=1 / open_gop=0 / weightp=2 / keyint=250 / keyint_min=25 / scenecut=40 / intra_refresh=0 / rc_lookahead=50 / rc=2pass / mbtree=1 / bitrate=1556 / ratetol=1.0 / qcomp=0.60 / qpmin=0 / qpmax=69 / qpstep=4 / cplxblur=20.0 / qblur=0.5 / ip_ratio=1.40 / aq=1:1.00
Default : Yes
Forced : No

Audio
ID : 2
Format : AC-3
Format/Info : Audio Coding 3
Mode extension : CM (complete main)
Codec ID : A_AC3
Duration : 45mn 48s
Bit rate mode : Constant
Bit rate : 192 Kbps
Channel(s) : 2 channels
Channel positions : Front: L R
Sampling rate : 48.0 KHz
Bit depth : 16 bits
Compression mode : Lossy
Stream size : 62.9 MiB (11%)
Default : Yes
Forced : No
Скриншоты

Постеры

Соцсети

 

Статистика

Автор: Nik
Добавлен: 20 сен 2013, 01:10
Размер: 8.96 ГБ
Размер: 9 618 313 077 байт
Сидеров: 2
Личеров: 0
Скачали: 1
Здоровье: 100%
Раздающих: 100%
Скорость скачивания: 0 байт/сек
Скорость раздачи: 0 байт/сек
Последний сидер: 3 года 3 месяца 17 дней 10 часов 52 минуты 28 секунд назад
Последний личер: 3 года 3 месяца 22 дня 23 часа 39 минут 10 секунд назад
Приватный: Нет (DHT включён)
Кулинария Скачать торрент
Скачать торрент
[ Размер 46.26 КБ / Просмотров 2 ]

Поделиться



Вернуться в Кулинария