Видео


Сообщение

Видео Завтрак в постель. Илья Лазерсон (69 серий) [2012-2013, Кулинарное шоу, WebRip, RUS] (Видеоурок)

Сообщение Nik » 20 сен 2013, 01:14

Завтрак в постель. Илья Лазерсон (69 серий)

Страна: Россия
Тематика: Кулинарное шоу
Тип раздаваемого материала: Видеоурок
Продолжительность: 29 мин.
Год выпуска: 2012-2013

Язык: Русский
Перевод: Не требуется

Описание: О чем мечтает женщина? Он знает как ее удивить. Каждое утро он делает ей приятное, доставляет истинное удовольствие … кухонное, как выражается он сам. Илья Лазерсон готовит завтрак для своей прекрасной дамы. Она еще только проснулась, а он – уже приготовил для нее прекрасный напиток. Она еще зевает, а он – поджаривает миндаль или готовит теплый салат.

Доп. информация: Приятного пробуждения! Говорят, что путь к сердцу мужчины лежит через желудок. А почему это правило не может распространяться и на женщин? Ведь представительницы слабого пола тоже любят вкусно поесть. Вы не умеете готовить? Это не беда! Благодаря советам и рецептам одного из лучших поваров современности Ильи Лазерсона вы научитесь кулинарным премудростям.

Качество: WebRip
Формат: MP4
Видео кодек: AVC
Аудио кодек: AAC
Видео: AVC, 1280x720, 16:9, ~2 400 Kbps, 25.000 fps
Аудио: AAC, 192 Kbps, 44.1 KHz, 2 channels
Список выпусков/серий
Банановый кекс
Блинчики «Сюзетт»
Блинчики с жареной капустой
Брауни с черносливом
Венецианский салат
Гребешки с сальсой
Жаба в норке
Жаренные перепела с гречкой и грибами
Жареный камамбер с вареньем из брусники
Запеканка из баклажанов
Зеленый салат с сыром «Бри»
Картофельные кростини
Кейк из спаржи и сыра
Клубника с маскарпоне и базиликом
Клубника с соусом из авокадо
Кобб-салат
Конвертики с гребешками, семгой и сыром
Копченая треска с рисом и салатом
Кофейно-шоколадный рулет
Креветки в соусе «Провансаль»
Креветки с дыней
Креветки с салатом из цукини
Крок-мадам с салатом
Куриный рулет
Люля-кебаб «Дедушкины усы»
Маринованные яйца
Меренговый рулет с клубникой
Мусс из копченой семги
Овощное крем-брюле
Пельмешки с креветками
Пирог с творогом и брокколи
Пицца с грушей и сыром «Горгонзола»
Пышки с яблочным сидром
Рататуй в «корзинке»
Ризотто с гребешками
Рулет с форелью
Рулетики из цукини
Салат из авокадо и апельсина
Салат из авокадо и мандарина в маринаде из апельсинового сока
Салат из манго
Салат с грейпфрутом и гребешками
Салат с зерненым творогом и пармской ветчиной
Салат с манго и сыром «фета»
Салат с печеным баклажаном
Стейк из семги в корочке из грецких орехов
Суп из голубого сыра с креветками
Суп из гребешков
Суп с кокосовым молоком в тайском стиле
Суп с креветочными шариками и яичными узелками
Суши-тортик с креветками
Творожные клецки со сливами
Темпура из креветок
Томатный суп с пельмешками
Торт с эндивием
Тосты с козьим сыром
Утренний яблочный пирог с кокосовой корочкой
Фантазия на тему суши
Фаршированные перепела
Форель с картофельными блинчиками
Хлебный пудинг с сыром
Холодный суп из авокадо с креветками
Холодный суп-пюре из спаржи и авокадо
Холодный томатный суп
Шарлотка с яблоками
Шашлычок из куриного филе с кокосовым супом
Шоколадная темпура
Шоколадные равиоли
Шоколадный крем
Яйца «Бенедикт»
MI
General
Complete name : H:\Кулинария\Завтрак в постель\Пельмешки с креветками.mp4
Format : MPEG-4
Format profile : Base Media / Version 2
Codec ID : mp42
File size : 599 MiB
Duration : 29mn 29s
Overall bit rate mode : Variable
Overall bit rate : 2 840 Kbps
Encoded date : UTC 2013-01-28 16:51:30
Tagged date : UTC 2013-01-28 16:51:30

Video
ID : 1
Format : AVC
Format/Info : Advanced Video Codec
Format profile : High@L3.1
Format settings, CABAC : Yes
Format settings, ReFrames : 1 frame
Codec ID : avc1
Codec ID/Info : Advanced Video Coding
Duration : 29mn 29s
Bit rate : 2 646 Kbps
Maximum bit rate : 4 780 Kbps
Width : 1 280 pixels
Height : 720 pixels
Display aspect ratio : 16:9
Frame rate mode : Constant
Frame rate : 25.000 fps
Color space : YUV
Chroma subsampling : 4:2:0
Bit depth : 8 bits
Scan type : Progressive
Bits/(Pixel*Frame) : 0.115
Stream size : 558 MiB (93%)
Tagged date : UTC 2013-01-28 16:52:02

Audio
ID : 2
Format : AAC
Format/Info : Advanced Audio Codec
Format profile : LC
Codec ID : 40
Duration : 29mn 29s
Bit rate mode : Variable
Bit rate : 192 Kbps
Maximum bit rate : 204 Kbps
Channel(s) : 2 channels
Channel positions : Front: L R
Sampling rate : 44.1 KHz
Compression mode : Lossy
Stream size : 40.5 MiB (7%)
Title : IsoMedia File Produced by Google, 5-11-2011
Encoded date : UTC 2013-01-28 16:51:38
Tagged date : UTC 2013-01-28 16:52:02
Скриншоты


Постеры

Соцсети

 

Статистика

Автор: Nik
Добавлен: 20 сен 2013, 01:14
Размер: 37.75 ГБ
Размер: 40 529 072 010 байт
Сидеров: 166
Личеров: 60
Скачали: 2
Здоровье: 100%
Раздающих: 100%
Скорость скачивания: 0 байт/сек
Скорость раздачи: 0 байт/сек
Последний сидер: 2 года 11 месяцев 23 дня 4 часа 37 минут 55 секунд назад
Последний личер: 10 месяцев 26 дней 22 часа 24 минуты 36 секунд назад
Приватный: Нет (DHT включён)
Кулинария Скачать торрент
Скачать торрент
[ Размер 100.57 КБ / Просмотров 12 ]

Поделиться



Вернуться в Кулинария