Видео


Сообщение

Видео Сладкая жизнь 1-84 выпуски [2011-2012, Кулинария, обучающее видео, видеорецепты, SATRip, WEBRip] (Видеоуроки)

Сообщение Nik » 20 сен 2013, 01:15

Сладкая жизнь 1-84 выпуски

Год выпуска: 2011-2012
Страна: Россия
Жанр: Кулинария, обучающее видео, видеорецепты
Продолжительность: 15 минут каждый выпуск
Перевод: Не требуется
Русские субтитры: нет

Описание: Десерт – особая глава в кулинарии. Это не просто ежедневная еда, а целое искусство доставлять удовольствие, радовать и удивлять. В программе «Сладкая жизнь» известный кулинарный блогер Елена Козырева раскроет секреты приготовления кексов, тортов, десертов и других умопомрачительных блюд! Она обожает готовить, но главное увлечение Елены – приготовление десертов. Ее холодильник всегда переполнен заварным кремом, пирожными, выпеченными коржами, домашним печеньем и другими вкусностями.

Доп. информация: Выпуски которые записаны со спутника: 2-4,6,7,13-17,20-31,33-48,50-78
Остальные выпуски в худшем качестве. Если будут повторять - обязательно запишу!!!
Список серий
01 - Торт ''Чёрный лес''
02 - Торт ''Морковный''
03 - Тортинка с апельсиновым конфетюром и шоколадным гонашем
04 - Чизкейк

05 - Бостонский кремовый торт
06 - Креп сюзетт
07 - Печенье аморетти
08 - Лигурийский лимонный пирог
09 - Мафины
10 - Шоколадный мусс и крем-карамель
11 - Капкейки
12 - Пари-Брест
13 - Ягодный тарт
14 - Тарт Татен
15 - Пища ангелов
16 - Парфе
17 - Пирог с грушами и миндальным кремом

18 - Рулет с малиной
19 - Штрудель
20 - Десерт ''Анна Павлова''
21 - Эклеры
22 - Брауни
23 - Торт Мокко
24 - Американский яблочный пирог
25 - Лимонный пирог
26 - Клубничные тортики
27 - Торт "Прага"
28 - Черничный пирог
29 - Карамельные булочки
30 - Торт "Пища дьявола"
31 - Яблочный пирог с посыпкой

32 - Кофейный баварский крем
33 - Линцкий торт
34 - Пахлава
35 - Имбирные пряники
36 - Профитроли
37 - Фруктовый кекс
38 - Торт "Захер"
39 - Тирамису
40 - Рождественское полено
41 - Конфеты "Трюфели" и "Бриттл"
42 - Миндальный торт с москарпоне
43 - Классическое праздничное печенье
44 - Штоллен
45 - Итальянские каноли с рикоттой
46 - Шоколадный торт
47 - Чизкейк на основе брауни
48 - Банановый хлеб

49 - Печенье с кусочками шоколада, овсяное печенье
50 - Фунтовый кекс
51 - Лимонный пирог
52 - Шоколадный фандан
53 - Лимонный пудинг
54 - Пирог на основе бриоши
55 - Бретонский пирог
56 - Кекс с шоколадом
57 - Лимонный торт
58 - Торт "Красный бархат"
59 - Бисквит с ягодами
60 - Чизкейк
61 - Миндальный торт
62 - Шоколадный пирог с фундуком и грушами
63 - Летний ягодный пирог
64 - Фруктовые пироги
65 - Вишневый пирог
66 - Наполеон
67 - Торт Три шоколада
68 - Тортинка с малиной
69 - Пироженое Мадлен
70 - Медовый хлеб
71 - Медовый торт
72 - Творожные кольца
73 - Киевский торт
74 - Пончики
75 - Фрукты в кляре
76 - Маковый штрудель
77 - Йогуртовый торт с черникой
78 - Эстерхази
79 - Нуга
80 - Миндаль в шоколаде
81 - Суфле
82 - Плавающий остров
83 - Карамельный торт
84 - Рождественский фруктовый кекс
Зелёным цветом отмечены выпуски в лучшем качестве
Красным цветом отмечены выпуски в худшем качестве

ВНИМАНИЕ! ТОРРЕНТ ПЕРЕЗАЛИТ 15.11.2012!!!
Добавлено:
79 - Нуга
80 - Миндаль в шоколаде
81 - Суфле
82 - Плавающий остров
83 - Карамельный торт
84 - Рождественский фруктовый кекс

Тех. данные, MI, скриншоты (1,5,8-12,18,19,32,49 выпуски)
Качество: WEBRip
Формат: AVI
Видео кодек: XviD
Аудио кодек: AC3
Видео: DivX, 640x480 (4:3), ~1000 kbps
Аудио: AC3, 112 kbps, 44,1 kHz, 2 ch
MI
Общее
Полное имя : G:\Сладкая жизнь\СЖ - 07.avi
Формат : AVI
Формат/Информация : Audio Video Interleave
Размер файла : 119 Мбайт
Продолжительность : 14 м.
Общий поток : 1112 Кбит/сек
Библиотека кодирования : VirtualDub build 32842/release

Видео
Идентификатор : 0
Формат : MPEG-4 Visual
Профиль формата : Advanced Simple@L5
Параметр BVOP формата : 1
Параметр QPel формата : Нет
Параметр GMC формата : Без точки перехода
Параметр матрицы формата : Default (H.263)
Режим смешивания : Сжатый битовый поток
Идентификатор кодека : XVID
Идентификатор кодека/Подсказка : XviD
Продолжительность : 14 м.
Битрейт : 991 Кбит/сек
Ширина : 640 пикселей
Высота : 480 пикселей
Соотношение сторон : 4:3
Частота кадров : 25,000 кадров/сек
Цветовое пространство : YUV
Субдискретизация насыщенности : 4:2:0
Битовая глубина : 8 бит
Тип развёртки : Прогрессивная
Метод сжатия : С потерями
Бит/(Пиксели*Кадры) : 0.129
Размер потока : 106 Мбайт (89%)
Библиотека кодирования : XviD 64

Аудио
Идентификатор : 1
Формат : AC-3
Формат/Информация : Audio Coding 3
Расширение режима : CM (complete main)
Идентификатор кодека : 2000
Продолжительность : 14 м.
Вид битрейта : Постоянный
Битрейт : 112 Кбит/сек
Каналы : 2 канала
Расположение каналов : Front: L R
Частота : 44,1 КГц
Битовая глубина : 16 бит
Метод сжатия : С потерями
Размер потока : 12,0 Мбайт (10%)
Выравнивание : Соединение по промежуткам
Продолжительность промежутка : 40 мс. (1,00 видеокадр)
Время предзагрузки промежутка : 522 мс.
Скриншоты
Тех. данные, MI, скриншоты (2-4,6,7,13-17,20-31,33-48,50-84 выпуски)
Качество: SATRip
Формат: AVI
Видео кодек: XviD
Аудио кодек: AC3
Видео: DivX, 720x532 (4:3), ~1500 kbps
Аудио: AC3, 192 kbps, 48 kHz, 2 ch
MI
Общее
Полное имя : G:\Сладкая жизнь\СЖ - 23.avi
Формат : AVI
Формат/Информация : Audio Video Interleave
Размер файла : 182 Мбайт
Продолжительность : 15 м.
Общий поток : 1697 Кбит/сек
Библиотека кодирования : VirtualDub build 32842/release

Видео
Идентификатор : 0
Формат : MPEG-4 Visual
Профиль формата : Advanced Simple@L5
Параметр BVOP формата : 2
Параметр QPel формата : Нет
Параметр GMC формата : Без точки перехода
Параметр матрицы формата : Default (H.263)
Режим смешивания : Сжатый битовый поток
Идентификатор кодека : XVID
Идентификатор кодека/Подсказка : XviD
Продолжительность : 15 м.
Битрейт : 1495 Кбит/сек
Ширина : 720 пикселей
Высота : 532 пикселя
Соотношение сторон : 4:3
Частота кадров : 25,000 кадров/сек
Цветовое пространство : YUV
Субдискретизация насыщенности : 4:2:0
Битовая глубина : 8 бит
Тип развёртки : Прогрессивная
Метод сжатия : С потерями
Бит/(Пиксели*Кадры) : 0.156
Размер потока : 160 Мбайт (88%)
Библиотека кодирования : XviD 1.2.0.dev47 (UTC 2006-11-01)

Аудио
Идентификатор : 1
Формат : AC-3
Формат/Информация : Audio Coding 3
Расширение режима : CM (complete main)
Идентификатор кодека : 2000
Продолжительность : 15 м.
Вид битрейта : Постоянный
Битрейт : 192 Кбит/сек
Каналы : 2 канала
Расположение каналов : Front: L R
Частота : 48,0 КГц
Битовая глубина : 16 бит
Метод сжатия : С потерями
Размер потока : 20,6 Мбайт (11%)
Выравнивание : Соединение по промежуткам
Продолжительность промежутка : 40 мс. (1,00 видеокадр)
Время предзагрузки промежутка : 992 мс.
Скриншоты

Постеры

Соцсети

 

Статистика

Автор: Nik
Добавлен: 20 сен 2013, 01:15
Размер: 14.13 ГБ
Размер: 15 167 202 421 байт
Сидеров: 41
Личеров: 5
Скачали: 0
Здоровье: 100%
Раздающих: 100%
Скорость скачивания: 0 байт/сек
Скорость раздачи: 0 байт/сек
Последний сидер: 2 года 3 месяца 3 дня 3 часа 8 минут 51 секунду назад
Последний личер: 10 месяцев 27 дней 3 часа 55 минут 24 секунды назад
Приватный: Нет (DHT включён)
Кулинария Скачать торрент
Скачать торрент
[ Размер 40.36 КБ / Просмотров 5 ]

Поделиться



  • Похожие торренты
    Ответы
    Просмотры
    Последнее сообщение

Вернуться в Кулинария