Видео


Сообщение

Видео Это все еда (Слово на букву "е") 4 / The F Word 4 [2008, кулинария, IPTVRip, RUS]

Сообщение Nik » 20 сен 2013, 01:15

Это все еда (Слово на букву "е") 4 / The F Word 4

Страна: Великобритания
Тематика: кулинария
Тип раздаваемого материала: шоу
Продолжительность: ~ 45 мин. на эпизод
Год выпуска: 2008

Язык: Русский
Перевод: Профессиональный (двухголосый)

Описание: The F Word — известное кулинарное телешоу Гордона Рамзи, идущее на британском Channel 4 начиная с 2005 года. Как и прочие телешоу Рамзи, основной объект интереса в шоу — пища, однако, отсутствует фокус на Высокой кухне(Haute cuisine), как во многих других телепередачах Рамзи. Основная идея телешоу: доказать зрителю, что приготовление вкусной и здоровой пищи вовсе не требует большого количества времени, энергии или затрат.

Доп. информация: Непережатый поток с IPTV трансляции. В раздаче 1-12 эпизоды(весь четвертый сезон).
Сайт с описанием и списком эпизодов на английском: http://www.channel4.com/programmes/gordon-ramsays-f...e-guide/series-4

12.05.2013 Торрент-файл перезалит! Добавлены девятый - двенадцатый(заключительный) эпизоды сезона.

Качество: IPTVRip
Формат: MPG
Видео кодек: MPEG2
Аудио кодек: MP2
Видео: MPEG2 Video, 704x576(4:3), 25fps, ~ 2 800 Kbps
Аудио: MPEG Audio, 48000Hz, stereo, 192kbps
s4e01.mpg.MediaInfo
General
Complete name : E:\Serial\The F Word\The F Word S04\s4e01.mpg
Format : MPEG-PS
File size : 1.06 GiB
Duration : 48mn 32s
Overall bit rate mode : Variable
Overall bit rate : 3 129 Kbps

Video
ID : 224 (0xE0)
Format : MPEG Video
Format version : Version 2
Format profile : Main@Main
Format settings, BVOP : Yes
Format settings, Matrix : Custom
Format settings, GOP : M=3, N=18
Duration : 48mn 32s
Bit rate mode : Variable
Bit rate : 2 875 Kbps
Maximum bit rate : 15.0 Mbps
Width : 704 pixels
Height : 576 pixels
Display aspect ratio : 4:3
Frame rate : 25.000 fps
Standard : PAL
Color space : YUV
Chroma subsampling : 4:2:0
Bit depth : 8 bits
Scan type : Interlaced
Scan order : Top Field First
Compression mode : Lossy
Bits/(Pixel*Frame) : 0.284
Stream size : 998 MiB (92%)
Matrix coefficients : BT.601

Audio
ID : 192 (0xC0)
Format : MPEG Audio
Format version : Version 1
Format profile : Layer 2
Duration : 48mn 32s
Bit rate mode : Constant
Bit rate : 192 Kbps
Channel(s) : 2 channels
Sampling rate : 48.0 KHz
Compression mode : Lossy
Stream size : 66.7 MiB (6%)
Скриншоты

Постеры

Соцсети

 

Статистика

Автор: Nik
Добавлен: 20 сен 2013, 01:15
Размер: 12.92 ГБ
Размер: 13 869 791 280 байт
Сидеров: 136
Личеров: 3
Скачали: 0
Здоровье: 100%
Раздающих: 100%
Скорость скачивания: 0 байт/сек
Скорость раздачи: 0 байт/сек
Последний сидер: 2 года 1 месяц 15 дней 9 часов 33 минуты 13 секунд назад
Последний личер: 7 месяцев 8 часов 28 минут 39 секунд назад
Приватный: Нет (DHT включён)
Кулинария Скачать торрент
Скачать торрент
[ Размер 130.12 КБ / Просмотров 2 ]

Поделиться



Вернуться в Кулинария