Видео


Сообщение

Видео Лучший повар Америки (МастерШеф США) 3 / MasterChef US 3 [2012, IPTVRip, RUS]

Сообщение Nik » 20 сен 2013, 01:17

Лучший повар Америки (МастерШеф США) 3 / MasterChef US 3

Страна: США
Тип раздаваемого материала: Реалити-шоу
Продолжительность: ~ 40 мин на эпизод
Год выпуска: 2012

Язык: Русский
Перевод: Профессиональный (двухголосый)

Описание: Повар-профессионал Гордон Рамзи ищет лучших кулинаров-любителей Америки. Посмотрите, как участники конкурса демонстрируют свою оригинальность, творческие подходы и страсть к приготовлению пищи. Все они полны надежд выиграть 250 тысяч долларов, издать свою кулинарную книгу и получить почетное звание "Лучшего шеф-повара Америки 2012".

Доп. информация: Непережатый поток с IPTV трансляции.

Качество: IPTVRip
Формат: MPG
Видео кодек: MPEG2
Аудио кодек: MP2
Видео: MPEG2 Video, 704x576 (4:3, 16-ый эпизод 16:9), 25fps, ~ 2 900 Kbps
Аудио: MPEG Audio, 48000Hz, stereo, 128kbps

23.05.2013 Торрент-файл перезалит! Добавлен двадцатый(финальный) эпизод.
Серия 01.mpg.MediaInfo
General
Complete name : E:\Serial\Лучший повар Америки 3\Эпизод 01.mpg
Format : MPEG-PS
File size : 876 MiB
Duration : 39mn 31s
Overall bit rate mode : Variable
Overall bit rate : 3 100 Kbps

Video
ID : 224 (0xE0)
Format : MPEG Video
Format version : Version 2
Format profile : Main@Main
Format settings, BVOP : Yes
Format settings, Matrix : Custom
Format settings, GOP : M=3, N=15
Duration : 39mn 31s
Bit rate mode : Variable
Bit rate : 2 910 Kbps
Maximum bit rate : 4 000 Kbps
Width : 704 pixels
Height : 576 pixels
Display aspect ratio : 4:3
Frame rate : 25.000 fps
Standard : PAL
Color space : YUV
Chroma subsampling : 4:2:0
Bit depth : 8 bits
Scan type : Interlaced
Scan order : Top Field First
Compression mode : Lossy
Bits/(Pixel*Frame) : 0.287
Stream size : 823 MiB (94%)
Matrix coefficients : BT.601

Audio
ID : 192 (0xC0)
Format : MPEG Audio
Format version : Version 1
Format profile : Layer 2
Mode : Joint stereo
Duration : 39mn 31s
Bit rate mode : Constant
Bit rate : 128 Kbps
Channel(s) : 2 channels
Sampling rate : 48.0 KHz
Compression mode : Lossy
Stream size : 36.2 MiB (4%)
Скриншоты

Постеры

Соцсети

 

Статистика

Автор: Nik
Добавлен: 20 сен 2013, 01:17
Размер: 17.46 ГБ
Размер: 18 751 146 064 байт
Сидеров: 0
Личеров: 2
Скачали: 0
Здоровье: ???%
Скорость скачивания: 0 байт/сек
Скорость раздачи: 0 байт/сек
Последний сидер: Нет
Последний личер: 8 месяцев 22 дня 12 часов 9 минут 39 секунд назад
Приватный: Нет (DHT включён)
Кулинария Скачать торрент
Скачать торрент
[ Размер 176.13 КБ / Просмотров 1 ]

Поделиться



  • Похожие торренты
    Ответы
    Просмотры
    Последнее сообщение

Вернуться в Кулинария