Видео


Сообщение

Видео Мировой повар. Илья Лазерсон. (69 выпусков) [2012, Кулинария, HDRip, RUS] (Видеоурок)

Сообщение Nik » 20 сен 2013, 01:18

Мировой повар

Страна: Россия
Тематика: Кулинария
Тип раздаваемого материала: Видеоурок
Продолжительность: ~28 минут передача
Год выпуска: 2012

Язык: Русский
Перевод: Не требуется

Описание: «Мировой повар»
Он всегда знает, что делает. Его не смущают критики, поклонницы и толпы голодных операторов во время съемок. С одинаковой легкостью он создает мировые кулинарные хиты, гастрономические изыски и простые блюда.
Илья Лазерсон – резидент телеканала еда|.

Доп. информация: 69 выпусков плюс пилотный.
Источники выпусков:
http://rutracker.org/forum/viewtopic.php?t=4132137
http://rutracker.org/forum/viewtopic.php?t=4178081
http://rutracker.org/forum/viewtopic.php?t=4316339
Недостающие выпуски были найдены на просторах интернета в HD MPEG4 Video (H264) 1280x720 25fps:
0. Лазерсон все знает
Кухня Испании. Гаспаччо
Кухня Италии. Спагетти с песто
Кухня Марокко. Тажин с кефта
Кухня Марокко. Тажин с курицей
Кухня Франции. Конфи из утки
Кухня Франции. Салат Оливье
Кухня Франции. Шукрут
Кухня Франции. Рыба «Валевска»
Полный список выпусков, вошедших в раздачу
0. Лазерсон все знает
Кухня Индии. Бирьяни
Кухня Индии. Картофельный и морковный салат
Кухня Индии. Куриный карри
Кухня Индии. Мунг-дал
Кухня Индии. Пакоры
Кухня Индии. Роган джош
Кухня Индии. Рыба по-бенгальски
Кухня Индии. Самоса
Кухня Индии. Три райты
Кухня Индии. Три чатни
Кухня Испании. Гаспаччо
Кухня Испании. Свинина в сидре
Кухня Испании. Цыплёнок чилиндрон
Кухня Испании. Чанфайна
Кухня Испании. Эмпанада
Кухня Италии. Баранина по-венозски
Кухня Италии. Вителло тонато - Телятина под тунцом
Кухня Италии. Каннеллони
Кухня Италии. Капоната
Кухня Италии. Каччукко
Кухня Италии. Кростини по-тоскански
Кухня Италии. Лазанья болоньезе
Кухня Италии. Минестроне
Кухня Италии. Оранчини
Кухня Италии. Оссобуко по-милански
Кухня Италии. Паста карбонара
Кухня Италии. Пицца Кальцоне
Кухня Италии. Пицца Четыре сыра
Кухня Италии. Польпетте
Кухня Италии. Пьемонтские ньокки
Кухня Италии. Ризотто по-милански
Кухня Италии. Сальтимбокка
Кухня Италии. Спагетти с песто
Кухня Италии. Тирамису
Кухня Марокко. Бастийя
Кухня Марокко. Блинчики бегрир и манные лепёшки
Кухня Марокко. Суп Харира
Кухня Марокко. Тажин с кефта
Кухня Марокко. Тажин с курицей
Кухня Мексики. Кесадилья
Кухня Мексики. Суп тортилья
Кухня Мексики. Чимичанга с гуакамоле
Кухня Мексики. Энчиладас с курицей
Кухня США. Говяжий стейк по куриному
Кухня США. Грязный рис
Кухня США. Дважды запечённый картофель
Кухня США. Джамбалайа
Кухня США. Салат Уолдорф
Кухня США. Салат Цезарь
Кухня США. Стейк портер-хаус
Кухня США. Суп Гамба
Кухня США. Тыквенный пирог
Кухня США. Фахитос
Кухня США. Чизкейк
Кухня Франции. Говядина Бургиньон
Кухня Франции. Жиго из индейки
Кухня Франции. Кассуле
Кухня Франции. Кок-о-ван
Кухня Франции. Конфи из утки
Кухня Франции. Лягушачьи ножки
Кухня Франции. Рыба <Валевска>
Кухня Франции. Салат Оливье
Кухня Франции. Шатобриан
Кухня Франции. Шукрут
Кухня Японии. Скияки
Кухня Японии. Суши
Кухня Японии. Тонкацу
Кухня Японии. Тэмпура
Кухня Японии. Якитори
Сэмпл

Качество: HDTVRip
Формат: AVI
Видео кодек: XviD
Аудио кодек: MP3
Видео: Video: Xvid 640x360 30fps 1641kbps [Video 0]
Аудио: Audio: MP3 48000Hz stereo 256kbps [Audio 1]
Mediainfo
Общее
Полное имя : H:\Tor\Kulinar\Мировой повар\Кухня США. Фахитос.avi
Формат : AVI
Формат/Информация : Audio Video Interleave
Размер файла : 388 Мбайт
Продолжительность : 28 м.
Общий поток : 1912 Кбит/сек
Программа кодирования : Lavf52.94.0

Видео
Идентификатор : 0
Формат : MPEG-4 Visual
Профиль формата : Simple@L3
Параметр BVOP формата : Нет
Параметр QPel формата : Нет
Параметр GMC формата : Без точки перехода
Параметр матрицы формата : Default (H.263)
Идентификатор кодека : XVID
Идентификатор кодека/Подсказка : XviD
Продолжительность : 28 м.
Битрейт : 1642 Кбит/сек
Ширина : 640 пикселей
Высота : 360 пикселей
Соотношение сторон : 16:9
Частота кадров : 30,000 кадров/сек
Цветовое пространство : YUV
Субдискретизация насыщенности : 4:2:0
Битовая глубина : 8 бит
Тип развёртки : Прогрессивная
Метод сжатия : С потерями
Бит/(Пиксели*Кадры) : 0.238
Размер потока : 333 Мбайт (86%)
Библиотека кодирования : XviD 1.2.1 (UTC 2008-12-04)

Аудио
Идентификатор : 1
Формат : MPEG Audio
Версия формата : Version 1
Профиль формата : Layer 3
Режим : Joint stereo
Расширение режима : MS Stereo
Идентификатор кодека : 55
Идентификатор кодека/Подсказка : MP3
Продолжительность : 28 м.
Вид битрейта : Постоянный
Битрейт : 256 Кбит/сек
Каналы : 2 канала
Частота : 48,0 КГц
Метод сжатия : С потерями
Размер потока : 51,9 Мбайт (13%)
Выравнивание : Соединение по промежуткам
Продолжительность промежутка : 24 мс. (0,72 видеокадр)
Библиотека кодирования : LAME3.98.4
Скриншоты

Постеры

Соцсети

 

Статистика

Автор: Nik
Добавлен: 20 сен 2013, 01:18
Размер: 23.35 ГБ
Размер: 25 076 652 868 байт
Сидеров: 15
Личеров: 7
Скачали: 14
Здоровье: 100%
Раздающих: 100%
Скорость скачивания: 0 байт/сек
Скорость раздачи: 0 байт/сек
Последний сидер: 8 месяцев 23 дня 21 час 34 минуты 56 секунд назад
Последний личер: 8 месяцев 23 дня 21 час 34 минуты 56 секунд назад
Приватный: Нет (DHT включён)
Кулинария Скачать торрент
Скачать торрент
[ Размер 123.08 КБ / Просмотров 7 ]

Поделиться



Вернуться в Кулинария