Видео


Сообщение

Видео D-Link | Видеоматериалы про основы сетевых технологий, коммутации, маршрутизации с сайта e.dlink.ua (2012-2013) [PCRec]

Сообщение Таточка » 23 окт 2013, 22:46

Год выпуска: 2012-2013
Жанр: Компьютерные сети
Продолжительность: 10:31:37
Качество видео: PCRec
Видеокодек: XVID/AVC
Битрейт видео: ~237-4600 kbps, 24\25 fps
Размер кадра: 1280x720\1024x576\1024x768
Аудиокодек: MP3/AAC
Битрейт аудио: Stereo, 44.1\48 KHz, 165\320 kbps

Описание:
Видеоматериалы с портала дистанционного обучения e.dlink.ua с помощью которых Вы узнаете что такое модель OSI, что из себя представляют протоколы которые входят в данную модель, как правильно настроить маршрутизаторы фирмы Dlink и многое другое...
Видеокурс "Основы маршрутизации"
Видеокурс "Основы коммутации"
Базовые понятия сетевых технологий
• История компьютерных сетей, использование компьютерных сетей, современные тенденции
• Компьютерная сеть – основные понятия и определения
• Классификация компьютерных сетей
• Взаимодействие компьютеров в сети
• Выводы

Эталонная модель взаимодействия компьютерных систем
• Сетевые модели, модель OSI
• Эталонная модель и стек протоколов TCP/IP
• Выводы

Топология сетей
• Физическая и логическая топологии, методы доступа к среде передачи
• Сетевые устройства в топологии
• Выводы

Физический уровень модели OSI
• Понятие линий связи, типы физической среды передачи, способы передачи данных по линии связи, характеристики линии связи
• Стандарты кабелей, типы кабелей
• Беспроводные среды передачи
• Кодирование и модуляция сигналов
• Выводы

Канальный уровень модели OSI
• Методы коммутации, канальный уровень
• Протоколы канального уровня, структура кадра данных
• Технологии локальных сетей
• Технология Ethernet
• Спецификации физической среды Ethernet, сменные интерфейсные модули
• Автосогласование, управление потоком, энергоэффективный Ethernet
• Выводы

Технологии и устройства канального уровня модели OSI
• Функционирование коммутаторов локальной сети, конструктивное исполнение коммутаторов
• Технологии коммутации и модель OSI
• Протоколы Spanning Tree
• Виртуальные локальные сети (VLAN)
• Пример, поясняющий работу VLAN
• Технология PoE, технология D-Link Green

Технологии беспроводных сетей
• Что такое Wi-Fi
• Основные элементы беспроводной сети, стандартные топологии беспроводных сетей
• Канальный уровень стандарта IEEE 802.11
• Подключение клиентов к беспроводной сети
• Стандарты беспроводных сетей IEEE 802.11a/b/g/n
• Диапазоны частот стандартов IEEE 802.11a/b/g/n
• Стандарт IEEE 802.11n
• Понятие мощности передатчика и чувствительности приемника
• Режимы работы точек доступа
• Безопасность беспроводных сетей
• VLAN в беспроводных сетях
• Выводы

Технологии широкополосного доступа
• Технологии широкополосного доступа, обзор технологий xDSL
• Технология ADSL
• Подключение абонентов по технологии ADSL
• Сигнальный обмен в ADSL
• Семейство стандартов ADSL
• Стандарты ADSL2/ADSL2+/RE-ADSL2
• Методы передачи данных по сети ADSL
• Технология VDSL
• Технологии FTTx
• Выводы

Адресация сетевого уровня модели OSI
• Протоколы сетевого уровня, протокол IP
• Формат пакета IPv4, функции IP-адреса
• Структура адреса IPv4, типы адресов IPv4
• Способы конфигурации адресов IPv4
• Планирование подсетей IPv4
• Решение проблемы исчерпания адресного пространства IPv4: бесклассовая адресация, технология NAT (Network Address Translation)
• Протокол IPv6, формат пакета IPv6
• Структура и представление адреса IPv6
• Типы адресов IPv6
• Идентификатор интерфейса адреса IPv6 и способы его получения
• Способы конфигурации адресов IPv6
• Планирование подсетей IPv6
• Переход с адресов IPv4 на IPv6
• Выводы

Протоколы разрешения адресов
• Необходимость технологии разрешения адресов
• Протокол Address Resolution Protocol (ARP)
• Технология Proxy ARP
• Технология разрешения адресов в IPv6
• Выводы

Протоколы сетевого уровня
• Протокол ICMP
• Протокол NDP
• Понятие маршрутизации
• Протоколы маршрутизации
• Принцип работы дистанционно-векторного протокола маршрутизации
• Протокол RIP
• Выводы

Протоколы верхних уровней модели OSI
• Транспортный уровень и его функции
• Протоколы TCP и UDP
• Функции сеансового уровня, уровня представлений и приложений
• Система доменных имен DNS
• Протокол DHCPv4/v6
• Протоколы Telnet, FTP, HTTP, почтовые протоколы
• Утилиты диагностики соединения
• Выводы
Видеокурс "Серия DSR - унифицированные маршрутизаторы D-Link"
Компания D-Link. Современные тенденции развития и модернизации сетей ISP
Общее
Полное имя : D:\Андрей\dlink
Формат : MPEG-4
Профиль формата : Base Media
Идентификатор кодека : isom
Размер файла : 24,6 Мбайт
Продолжительность : 12 м.
Режим общего битрейта : Переменный
Общий поток : 273 Кбит/сек
Программа кодирования : Lavf53.20.0

Видео
Идентификатор : 1
Формат : AVC
Формат/Информация : Advanced Video Codec
Профиль формата :
Параметр CABAC формата : Да
Параметр ReFrames формата : 4 кадра
Идентификатор кодека : avc1
Идентификатор кодека/Информация : Advanced Video Coding
Битрейт : 237 Кбит/сек
Ширина : 1024 пикселя
Высота : 768 пикселей
Соотношение сторон : 4:3
Режим частоты кадров : Постоянный
Частота кадров : 25,000 кадров/сек
Цветовое пространство : YUV
Субдискретизация насыщенности : 4:2:0
Битовая глубина : 8 бит
Тип развёртки : Прогрессивная
Бит/(Пиксели*Кадры) : 0.005
Размер потока : 9,44 Мбайт (38%)
Библиотека кодирования : x264 core 118 r2085 8a62835
Настройки программы : cabac=1 / ref=4 / deblock=1:0:0 / analyse=0x3:0x113 / me=umh / subme=8 / psy=0 / mixed_ref=1 / me_range=16 / chroma_me=1 / trellis=1 / 8x8dct=1 / cqm=0 / deadzone=21,11 / fast_pskip=1 / chroma_qp_offset=0 / threads=6 / sliced_threads=0 / nr=0 / decimate=1 / interlaced=0 / bluray_compat=0 / constrained_intra=0 / bframes=3 / b_pyramid=0 / b_adapt=2 / b_bias=0 / direct=3 / weightb=1 / open_gop=0 / weightp=2 / keyint=250 / keyint_min=25 / scenecut=40 / intra_refresh=0 / rc_lookahead=40 / rc=crf / mbtree=1 / crf=22.0 / qcomp=0.60 / qpmin=10 / qpmax=51 / qpstep=4 / vbv_maxrate=5000 / vbv_bufsize=100000 / crf_max=0.0 / nal_hrd=none / ip_ratio=1.40 / aq=1:1.00
Язык : English
Дата пометки : UTC 2012-07-20 09:10:36

Аудио
Идентификатор : 2
Формат : AAC
Формат/Информация : Advanced Audio Codec
Профиль формата : LC
Идентификатор кодека : 40
Вид битрейта : Переменный
Битрейт : 165 Кбит/сек
Максимальный битрейт : 192 Кбит/сек
Каналы : 1 канал
Расположение каналов : Front: C
Частота : 44,1 КГц
Метод сжатия : С потерями
Задержка видео : 40 мс.
Размер потока : 14,8 Мбайт (60%)
Язык : English
Дата пометки : UTC 2012-07-20 09:10:36
Скриншоты:

Время раздачи: 24/7 (круглосуточно)

Постеры

Соцсети

 

Статистика

Автор: Таточка
Добавлен: 23 окт 2013, 22:46
Размер: 1.61 ГБ
Размер: 1 725 647 011 байт
Сидеров: 43
Личеров: 6
Скачали: 2
Здоровье: 100%
Раздающих: 100%
Скорость скачивания: 0 байт/сек
Скорость раздачи: 0 байт/сек
Последний сидер: 25 дней 2 часа 7 минут 51 секунду назад
Последний личер: 25 дней 2 часа 7 минут 51 секунду назад
Приватный: Нет (DHT включён)
Сеть и безопасность Скачать торрент
Скачать торрент
[ Размер 21.99 КБ / Просмотров 21 ]

Поделиться



  • Похожие торренты
    Ответы
    Просмотры
    Последнее сообщение

Вернуться в Сеть и безопасность