Видео


Сообщение

Видео Учимся считать вместе с Hello Kitty: Арифметика [1976, DVDRip]

Сообщение Таточка » 21 янв 2012, 19:05

Русское название: Учимся считать вместе с Hello Kitty: Арифметика
Оригинальное название: Hello Kitty
Год выпуска: 1976
Страна: Япония
Жанр: Детский, Обучающий

Перевод: Многоголосый закадровый, профессиональный
Язык: Русский

Режиссер: Цуджи Шинтаро
Персонажи: Kitty
За релиз благодарности: кисатОВО

Описание фильма:
Добро пожаловать в веселый мир «Hello Kitty»! Это увлекательная программа в игровой форме поможет малышам научиться выполнять простейшие арифметические действия, такие как сложение и вычитание. Кити хочет познакомить своего друга Утенка с Всезнайкой. Ведь он может научить Утенка и ребят не только считать, но и складывать простые числа. Решать задачки вместе с Кити и ее друзьями - это так увлекательно! Научиться вычитать не менее важно, чем складывать. Сколько яблок осталось в корзине? Каких кубиков больше? Сколько тарелок не хватает для пирожных? Такие простые задачки помогут ребятам научиться вычитанию и весело провести время.

Продолжительность: 2x~00:23:00
Качество видео: DVDRip

Видеокодек: Xvid
Битрейт видео: ~1880 Кбит/с
Размер кадра: 704x528
Аудиокодек: AC3
Битрейт аудио: 2 ch, 192 Кбит/с
Полное имя: Slojenie.1976.XviD.DVDRip.avi
Формат: AVI
Формат/Информация: Audio Video Interleave
Размер файла: 342 Мбайт
Продолжительность: 22 м.
Общий поток: 2123 Кбит/сек
Программа кодирования: VirtualDubMod 1.5.10.2 (build 2540/release)
Библиотека кодирования: VirtualDubMod build 2540/release

Видео
Идентификатор: 0
Формат: MPEG-4 Visual
Профиль формата: Advanced Simple@L5
Параметр BVOP формата: Да
Параметр QPel формата: Нет
Параметр GMC формата: Без точки перехода
Параметр матрицы формата: Default (MPEG)
Идентификатор кодека: XVID
Идентификатор кодека/Подсказка: XviD
Продолжительность: 22 м.
Битрейт: 1920 Кбит/сек
Ширина: 704 пикс.
Высота: 528 пикс.
Соотношение сторон: 4:3
Частота кадров: 29,970 кадр/сек
Цветовое пространство: YUV
Подвыборка цветности: 4:2:0
Битовая глубина: 8 бит
Тип развёртки: Прогрессивная
Метод сжатия: С потерями
Бит/(Пиксели*Кадры): 0.172
Размер потока: 309 Мбайт (90%)
Библиотека кодирования: XviD 1.2.1 (UTC 2008-12-04)

Аудио
Идентификатор: 1
Формат: AC-3
Формат/Информация: Audio Coding 3
Расширение режима: CM (complete main)
Идентификатор кодека: 2000
Продолжительность: 22 м.
Вид битрейта: Постоянный
Битрейт: 192 Кбит/сек
Канал(ы): 2 канала(ов)
Расположение каналов: Front: L R
Частота: 48,0 КГц
Битовая глубина: 16 бит
Метод сжатия: С потерями
Размер потока: 30,9 Мбайт (9%)
Выравнивание: Соединение по промежуткам
Продолжительность промежутка: 33мс. (1,00 видеокадр)
Время предзагрузки промежутка: 512 ms
Полное имя: Vichitanie.1976.XviD.DVDRip.avi
Формат: AVI
Формат/Информация: Audio Video Interleave
Размер файла: 360 Мбайт
Продолжительность: 23 м.
Общий поток: 2141 Кбит/сек
Программа кодирования: VirtualDubMod 1.5.10.2 (build 2540/release)
Библиотека кодирования: VirtualDubMod build 2540/release

Видео
Идентификатор: 0
Формат: MPEG-4 Visual
Профиль формата: Advanced Simple@L5
Параметр BVOP формата: Да
Параметр QPel формата: Нет
Параметр GMC формата: Без точки перехода
Параметр матрицы формата: Default (MPEG)
Идентификатор кодека: XVID
Идентификатор кодека/Подсказка: XviD
Продолжительность: 23 м.
Битрейт: 1938 Кбит/сек
Ширина: 704 пикс.
Высота: 528 пикс.
Соотношение сторон: 4:3
Частота кадров: 29,970 кадр/сек
Цветовое пространство: YUV
Подвыборка цветности: 4:2:0
Битовая глубина: 8 бит
Тип развёртки: Прогрессивная
Метод сжатия: С потерями
Бит/(Пиксели*Кадры): 0.174
Размер потока: 326 Мбайт (90%)
Библиотека кодирования: XviD 1.2.1 (UTC 2008-12-04)

Аудио
Идентификатор: 1
Формат: AC-3
Формат/Информация: Audio Coding 3
Расширение режима: CM (complete main)
Идентификатор кодека: 2000
Продолжительность: 23 м.
Вид битрейта: Постоянный
Битрейт: 192 Кбит/сек
Канал(ы): 2 канала(ов)
Расположение каналов: Front: L R
Частота: 48,0 КГц
Битовая глубина: 16 бит
Метод сжатия: С потерями
Размер потока: 32,3 Мбайт (9%)
Выравнивание: Соединение по промежуткам
Продолжительность промежутка: 33мс. (1,00 видеокадр)
Время предзагрузки промежутка: 512 ms
Скриншоты:

Время раздачи: 24/7 - круглосуточно до 15 скачавших

Постеры

Соцсети

 

Статистика

Автор: Таточка
Добавлен: 21 янв 2012, 19:05
Размер: 702.11 МБ
Размер: 736 215 040 байт
Сидеров: 2
Личеров: 0
Скачали: 0
Здоровье: 100%
Раздающих: 100%
Изменил: Stepan (22 янв 2012, 22:04)
Скорость скачивания: 0 байт/сек
Скорость раздачи: 0 байт/сек
Последний сидер: 1 год 6 месяцев 22 дня 18 часов 41 минуту 1 секунду назад
Последний личер: 5 лет 4 месяца 5 дней 8 часов 4 минуты 55 секунд назад
Приватный: Нет (DHT включён)
Школьникам, студентам и педагогам Скачать торрент
Скачать торрент
[ Размер 14.58 КБ / Просмотров 6 ]

Поделиться



Вернуться в Школьникам, студентам и педагогам