Видео


Сообщение

Видео Мои друзья Тигруля и Винни: Тайны волшебного леса [2008, DVDRip]

Сообщение Таточка » 21 янв 2012, 19:05

Русское название: Мои друзья Тигруля и Винни: Тайны волшебного леса
Оригинальное название: My Friends Tigger and Pooh: The Hundred Acre Wood Haunt
Год выпуска: 2008
Производство: США
Жанр: Детский, Обучающий, Развивающий



Перевод: Дублированный
Режиссер: Дэвид Хартманн, Дон Маккиннон
Участники: Бастер, Дарби, Ру, Винни Пух, Лампи, Пиглет, Тигра, Кролик
Описание фильма:
Винни, Тигруля, Дарби и их друзья приглашают тебя в свою веселую компанию. Осень - пора сюрпризов. Чтобы ответить на загадочные вопросы и раскрыть невероятные тайны, твоим старым приятелям из Волшебного Леса нужна помощь опытного сыщика - такого, как ты. Смогут ли друзья Хрюни помочь ему справиться со страхом перед громом и молнией с помощью игры в "замиралки"? А когда от луны отколется кусочек, неужели Тигруля и в самом деле полетиит на ракете на небо и починит ее? И это только часть невероятных приключений. Приготовься смеяться, играть и петь вместе с неунывающими обитателями Волшебного Леса!
Содержание:
1-2 Великанище. Лекарсво от страха
3-4 Полет на луну. Все ниже, ниже и ниже
5-6 Дом - милый дом. Битва за урожай
7 - Печенюшное дерево + Бонус - Умелец Мэнни
Продолжительность: 7 х ~ 00:11:30 + бонус - 00:23:04
Качество видео: DVDRip
Видеокодек: DivX 5
Битрейт видео: ~1 929 Kbps
Размер кадра: 720 x 538
Аудиокодек: AC3 2.0
Битрейт аудио: 192 Kbps
General
Complete name: Мои друзья Тигруля и Винни - Тайны волшебного леса\1-2 Великанище. Лекарсво от страха.avi
Format: AVI
Format/Info: Audio Video Interleave
File size: 351 MiB
Duration: 23mn 2s
Overall bit rate: 2 132 Kbps
Movie name: Moi.druziya.tirgulya.i.vinni.taini.volshebnogo.lesa.2008.DVD-9.Title1.DVDRip
Writing application: Lavf52.33.0
Original source form/Name: Moi.druziya.tirgulya.i.vinni.taini.volshebnogo.lesa.2008.DVD-9

Video
ID: 0
Format: MPEG-4 Visual
Format profile: Simple@L3
Format settings, BVOP: No
Format settings, QPel: No
Format settings, GMC: No warppoints
Format settings, Matrix: Default (H.263)
Codec ID: DX50
Codec ID/Hint: DivX 5
Duration: 23mn 2s
Bit rate: 1 929 Kbps
Width: 720 pixels
Height: 538 pixels
Display aspect ratio: 4:3
Frame rate: 25.000 fps
Color space: YUV
Chroma subsampling: 4:2:0
Bit depth: 8 bits
Scan type: Progressive
Compression mode: Lossy
Bits/(Pixel*Frame): 0.199
Stream size: 318 MiB (90%)
Writing library: XviD 1.2.1 (UTC 2008-12-04)

Audio
ID: 1
Format: AC-3
Format/Info: Audio Coding 3
Mode extension: CM (complete main)
Codec ID: 2000
Duration: 23mn 2s
Bit rate mode: Constant
Bit rate: 192 Kbps
Channel(s): 2 channels
Channel positions: Front: L R
Sampling rate: 48.0 KHz
Bit depth: 16 bits
Compression mode: Lossy
Stream size: 31.7 MiB (9%)
Alignment: Aligned on interleaves
Interleave, duration: 32 ms (0.80 video frame)
Скриншоты:


Время раздачи: 18:00 - 00:00

Постеры

Соцсети

 

Статистика

Автор: Таточка
Добавлен: 21 янв 2012, 19:05
Размер: 1.72 ГБ
Размер: 1 843 199 230 байт
Сидеров: 1
Личеров: 0
Скачали: 0
Здоровье: 100%
Раздающих: 100%
Изменил: Stepan (22 янв 2012, 22:03)
Скорость скачивания: 0 байт/сек
Скорость раздачи: 0 байт/сек
Последний сидер: 10 месяцев 24 дня 17 часов 33 минуты 53 секунды назад
Последний личер: Нет
Приватный: Нет (DHT включён)
Школьникам, студентам и педагогам Скачать торрент
Скачать торрент
[ Размер 18.46 КБ / Просмотров 1 ]

Поделиться



Вернуться в Школьникам, студентам и педагогам