RusTuts.com | FabFilter Pro - Витамины для сведения и мастеринга (2013) [PCRec]

Видео уроки, книги, учебники по созданию музыки, работа с звуковыми редакторами
Торрент Сидеров Личеров Размер
torrent_126396.torrent
4 6 2.88 ГБ
Аватара пользователя
Tutorial
Сообщения: 9021
Зарегистрирован: 17 янв 2012, 23:53

RusTuts.com | FabFilter Pro - Витамины для сведения и мастеринга (2013) [PCRec]

Сообщение Tutorial » 30 ноя 2013, 01:59

RusTuts.com | FabFilter Pro - Витамины для сведения и мастеринга (2013) [PCRec]

Автор (режиссер): RusTuts.com
Название: FabFilter Pro - Витамины для сведения и мастеринга
Год выпуска: 2013
Жанр: Работа со звуком
Язык: Русский
Продолжительность: 01:17:54
Качество видео: PCRec
Видеокодек: AVC/H.264
Битрейт видео: ~7 272 Kbps, 30.000 fps
Размер кадра: 1920x1080, 16:9
Аудиокодек: AAC
Битрейт аудио: ~506 Kbps, 2 channels, 44.1 KHz

Описание: Просмотрев курс “FabFilter Pro - Витамины для сведения и мастеринга”, Вы узнаете:

- Как пользоваться плагинами FabFilter Pro более углубленно применяя их широкие возможности;
- Особенности и характеристики нового плагина Pro-MB, который на данный момент является лучшей многополосной динамической обработкой. Компания FabFillter разработали специальный алгоритм с динамической фазо-частотной характеристикой для наиболее качественной и прозрачной обработки, а также инновационный подход к разделению спектра частот на полосы для удобства управления;
- Различия между режимами обработки с нулевой задержкой и линейной фазо-частотной характеристикой эквалайзера;
- Практическое применение дизеринга;
- Применение плагинов FabFilter в нестандартной ситуации, чтобы вдохновить вас на эксперименты, на поиск своих собственных приемов, трюков и секретов.
Введение

FabFilter Pro-Q
1. Pro-Q — Эквалайзер высокого класса
2. Pro-Q — Управление параметрами
3. Pro-Q — Интерактивный дисплей
4. Pro-Q — Режим предварительного прослушивания
5. Pro-Q — L-R и M-S
6. Pro-Q — Режим с линейной ФЧХ
7. Pro-Q — Выбор подходящего алгоритма обработки
8. Pro-Q — Анализатор спектра
9. Pro-Q — Разделение стереосигнала на Mid и Side

FabFilter Pro-C
10. Pro-C — Компрессор с гибкими настройками
11. Pro-C — Динамические и временные характеристики
12. Pro-C — Информативный дисплей
13. Pro-C — Внутреннее и внешнее управление
14. Pro-C — L-R и M-S компрессия

FabFilter Pro-MB
15. Pro-MB — Многополосная обработка с простым управлением
16. Pro-MB — Интерфейс и рабочий процесс
17. Pro-MB — Экспертный режим управления
18. Pro-MB — 3 алгоритма разделения спектра

FabFilter Pro-L
19. Pro-L — Профессиональный лимитер
20. Pro-L — Четыре стиля лимитирования
21. Pro-L — Параметры динамической обработки
22. Pro-L — Интуитивное отображение информации
23. Pro-L — Дизеринг
24. Pro-L — Рекомендуемый рабочий процесс

Заключение
General
Complete name : E:\TORRENTS.RU\RusTuts.com - FabFilter Pro. Витамины для сведения и мастеринга\00. Введение.mp4
Format : MPEG-4
Format profile : Base Media / Version 2
Codec ID : mp42
File size : 51.3 MiB
Duration : 56s 703ms
Overall bit rate mode : Variable
Overall bit rate : 7 590 Kbps
Encoded date : UTC 2013-10-29 14:36:35
Tagged date : UTC 2013-10-29 14:36:35

Video
ID : 1
Format : AVC
Format/Info : Advanced Video Codec
Format profile :
Format settings, CABAC : Yes
Format settings, ReFrames : 3 frames
Codec ID : avc1
Codec ID/Info : Advanced Video Coding
Duration : 56s 667ms
Source duration : 56s 667ms
Bit rate mode : Variable
Bit rate : 7 272 Kbps
Width : 1 920 pixels
Height : 1 080 pixels
Display aspect ratio : 16:9
Frame rate mode : Variable
Frame rate : 30.000 fps
Minimum frame rate : 30.000 fps
Maximum frame rate : 30.030 fps
Standard : NTSC
Color space : YUV
Chroma subsampling : 4:2:0
Bit depth : 8 bits
Scan type : Progressive
Bits/(Pixel*Frame) : 0.117
Stream size : 49.1 MiB (96%)
Source stream size : 49.1 MiB (96%)
Language : English
Encoded date : UTC 2013-10-29 14:36:35
Tagged date : UTC 2013-10-29 14:36:35
mdhd_Duration : 56667
Color primaries : BT.709
Transfer characteristics : BT.709
Matrix coefficients : BT.709

Audio
ID : 2
Format : AAC
Format/Info : Advanced Audio Codec
Format profile : LC
Codec ID : 40
Duration : 56s 703ms
Source duration : 56s 703ms
Bit rate mode : Variable
Bit rate : 319 Kbps
Maximum bit rate : 506 Kbps
Channel(s) : 2 channels
Channel positions : Front: L R
Sampling rate : 44.1 KHz
Compression mode : Lossy
Stream size : 2.15 MiB (4%)
Source stream size : 2.15 MiB (4%)
Language : English
Encoded date : UTC 2013-10-29 14:36:35
Tagged date : UTC 2013-10-29 14:36:35
mdhd_Duration : 56703
Скриншоты:


Время раздачи: с 10:00 до 24:00
У вас нет необходимых прав для просмотра вложений в этом сообщении.

Аватара пользователя
reprime
Сообщения: 16
Зарегистрирован: 02 окт 2014, 15:26

Re: RusTuts.com | FabFilter Pro - Витамины для сведения и мастеринга (2013) [PCRec]

Сообщение reprime » 02 окт 2014, 19:36

Благодарю!