Видео


Сообщение

Видео Михаил Юдин | Cinema 4D. Базовый курс на русском языке (2011) [HDRip]

Сообщение Tutorial » 30 ноя 2013, 07:09

Михаил Юдин | Cinema 4D. Базовый курс на русском языке (2011) [HDRip]

Автор (режиссер): Михаил Юдин
Официальный сайт: mikeudin.net
Название: Cinema 4D. Базовый курс на русском языке
Год выпуска: 2011
Жанр: Компьютерная графика

Продолжительность: 06:10:34
Качество видео: HDRip
Видеокодек: MPEG-4
Битрейт видео: ~569 Kbps, 30.000 fps
Размер кадра: 1280x800

Аудиокодек: AAC
Битрейт аудио: 53.6 Kbps, 2 channels, 44.1 KHz

Описание:
Курс состоит из 18-ти занятий и одного бонусного урока, общей продолжительностью более 5 часов. На первом этапе планировалось записать больше бонусных уроков, но потом появилась мысль выделить их в отдельную категорию и распространять по отдельности. Бонусные уроки будут по различным темам: моделирование, текстовые эффекты, создание различных типов материалов, анимация и пр. Все уроки будут расчитаны на начинающих.
    Занятие 1
    Интерфейс. Окна проекции, панели, пункты меню, менеджеры. Настройка интерфейса, сохранение пользовательских компоновок. Использование Command Manager для создания новых панелей и назначения горячих клавиш. Работа с окнами менеджеров.
    Продолжительность: 16 минут.

    Занятие 2
    Работа со вьюпортом. Инструменты выбора, перемещения, масштабирования, поворота. Режимы редактирования Use Model Tool, Use Object Tool. Глобальная и локальная системы координат.
    Продолжительность: 27 минут.

    Занятие 3
    Менеджер объектов. Принцип работы системы иерархии объектов, слои, видимость в редакторе, рендере. Работа с интерфейсом значений в менеджере атрибутов.
    Продолжительность: 21 минута.

    Занятие 4
    Трехмерные примитивы. Общие свойства примитивов: сегментация, работа с интерактивными элементами управления. Режимы работы с полигональными объектами: вершины, полигоны, ребра. Обзор свойств некоторых примитивов.
    Продолжительность: 23 минуты.

    Занятие 5
    Сплайны. Для чего они используются, примеры. Инструменты рисования сплайнов. Сплайновые примитивы.
    Продолжительность: 16 минут.

    Занятие 6
    Объекты генераторы: NURBS-объекты.
    Продолжительность: 23 минуты.

    Занятие 7
    Камера и ее свойства. Угол обзора камеры, фокусное расстояние, проекция, настройка глубины резкости (depth of field) и т.д.
    Продолжительность: 24 минуты.

    Занятие 8
    Объекты группы Modelling: Array, Boole, Instanse, Metaball, Symmetry, Сonstruction Plane, Atom Array, Connect Object.
    Продолжительность: 20 минут.

    Занятие 9
    Материалы. Создание нового материала в менеджере материалов. Редактор материалов. Свойства материала: цвет, диффузия, свечение, прозрачность, отражение… и пр. Назначение материалов объектам.
    Продолжительность: 30 минут.

    Занятие 10
    Источники света. Стандартное освещение. Типы источников света. Тени. Объемный свет.
    Продолжительность: 15 минут.

    Занятие 11
    Что такое полигон и n-gon? Инструменты полигонального моделирования. Меню Selection.
    Продолжительность: 14 минут.

    Занятие 12
    Меню Structure. Редактирование осей, Use Axis tool. Инструменты и функции работы со сплайнами и полигонами.
    Продолжительность: 30 минут.

    Занятие 13
    Меню Functions. Функции Arrange, Center, Duplicate, Connect, Connect+Delete, Current State to Object, Transfer и пр.
    Продолжительность: 10 минут.

    Занятие 14
    Анимация. Шкала времени. Установка частоты кадров проекта. Установки единиц измерения времени. Способы создания анимации: кнопка записи, автоматическая запись, анимация параметров. Timeline.
    Продолжительность: 18 минут.

    Занятие 15
    Рендеринг. Функции Render Active View, Render Region, Render to Picture Viewer. Окно Render Settings.
    Продолжительность: 28 минут.

    Занятие 16
    Менеджер изображений.
    Продолжительность: 10 минут.

    Занятие 17
    Модуль Мограф. Краткий обзор с примерами.
    Продолжительность: 19 минут.

    Занятие 18
    Основы XPresso. Данные пользователя.
    Продолжительность: 10 минут.

    Бонусное занятие
    Несколько приемов оптимизации работы.
    Продолжительность 11 минут.
General
Complete name : ...\C4D.BasicRussian\data\Bonus1.mp4
Format : MPEG-4
Format profile : Base Media / Version 2
Codec ID : mp42
File size : 55.2 MiB
Duration : 11mn 44s
Overall bit rate : 657 Kbps
Encoded date : UTC 2011-06-13 10:30:49
Tagged date : UTC 2011-06-13 10:30:49

Video
ID : 1
Format : AVC
Format/Info : Advanced Video Codec
Format profile :
Format settings, CABAC : Yes
Format settings, ReFrames : 4 frames
Codec ID : avc1
Codec ID/Info : Advanced Video Coding
Duration : 11mn 44s
Source duration : 11mn 44s
Bit rate mode : Variable
Bit rate : 569 Kbps
Width : 1 280 pixels
Height : 800 pixels
Display aspect ratio : 16:10
Frame rate mode : Constant
Frame rate : 30.000 fps
Standard : NTSC
Color space : YUV
Chroma subsampling : 4:2:0
Bit depth : 8 bits
Scan type : Progressive
Bits/(Pixel*Frame) : 0.019
Stream size : 47.7 MiB (87%)
Source stream size : 50.4 MiB (91%)
Language : English
Encoded date : UTC 2011-06-13 10:30:49
Tagged date : UTC 2011-06-13 10:30:49
mdhd_Duration : 703983
Color primaries : BT.709
Transfer characteristics : BT.709
Matrix coefficients : BT.709

Audio
ID : 2
Format : AAC
Format/Info : Advanced Audio Codec
Format profile : LC
Codec ID : 40
Duration : 11mn 44s
Source duration : 11mn 44s
Bit rate mode : Constant
Bit rate : 53.6 Kbps
Channel(s) : 2 channels
Channel positions : Front: L R
Sampling rate : 44.1 KHz
Compression mode : Lossy
Stream size : 4.49 MiB (8%)
Source stream size : 4.49 MiB (8%)
Language : English
Encoded date : UTC 2011-06-13 10:30:49
Tagged date : UTC 2011-06-13 10:30:49
mdhd_Duration : 703934
Скриншоты:


Время раздачи: с 05:00 до 16:00 MSK

Постеры

Соцсети

 

Статистика

Автор: Tutorial
Добавлен: 30 ноя 2013, 07:09
Размер: 1.92 ГБ
Размер: 2 064 550 031 байт
Сидеров: 249
Личеров: 22
Скачали: 13
Здоровье: 100%
Раздающих: 100%
Скорость скачивания: 0 байт/сек
Скорость раздачи: 0 байт/сек
Последний сидер: 3 месяца 20 дней 17 часов 19 минут 11 секунд назад
Последний личер: 4 месяца 2 дня 9 часов 13 минут 56 секунд назад
Приватный: Нет (DHT включён)
Компьютерная графика Скачать торрент
Скачать торрент
[ Размер 21.76 КБ / Просмотров 80 ]

Поделиться



  • Похожие торренты
    Ответы
    Просмотры
    Последнее сообщение

Вернуться в Компьютерная графика