А.Сподин | Мегаскорочтение - Перезагрузка мозга 2.0 (2013) [PCRec]

Торрент Сидеров Личеров Размер
torrent_127217.torrent
17 8 8.71 ГБ
Аватара пользователя
Tutorial
Сообщения: 9024
Зарегистрирован: 17 янв 2012, 23:53

А.Сподин | Мегаскорочтение - Перезагрузка мозга 2.0 (2013) [PCRec]

Сообщение Tutorial » 30 ноя 2013, 07:13

А.Сподин | Мегаскорочтение - Перезагрузка мозга 2.0 (2013) [PCRec]

Автор (режиссер): А.Сподин
Название: Мегаскорочтение - Перезагрузка мозга 2.0
Год выпуска: 2013
Жанр: Oбучающий тренинг
Продолжительность: более 20:00:00
Качество видео: PCRec
Видеокодек: MPEG-4
Битрейт видео: ~1110 Кбит/сек
Размер кадра: 1280 х 626
Аудиокодек: AAC
Битрейт аудио: 192 Кбит/сек

Описание:
Скорость мышления, скорость принятия решений, скорость денежного потока, скорость интеллектуального роста, скорость опережения конкурентов, скорость усвоения информации, все в нашей жизни определяется скоростью нашего развития, причем в любых направлениях!
Вы получите самые эффективные методики обучения, с помощью которых Вы сможете:

Получить Высшее образование за 1 год
Несколько раз в течении тренинга легко удвоить скорость своего чтения;
Сэкономить на покупке новых книг, чтением их прямо в книжном магазине;
Сдать сессию за 1 неделю на отлично "без геморроя";
Получить 500$ вознаграждения за побитый существующий рекорд (6047 слов в минуту при понимании 90%, что эквивалентно прочтению 1637 страниц "Война и Мир" Л.Н. Толстого, за 1 час и 20 минут);
Запоминать любую информацию (например, китайский иероглиф) с 1-го раза и помнить столько, сколько нужно;
Получить новую специальность за 1 месяц;
Создавать устойчивое желание учиться/работать в комфортном состоянии, когда это нужно;
Присоединиться к сообществу МЕГА-развития из 29 стран;
Использовать инструменты для эффективной и быстрой работы с разной информацией в печатном и электронном виде;
В 10 раз увеличить информационную стрессоустойчивость;
Научиться стратегии "Делаю драйвово и только то, что люблю, что прет", а если не люблю, то знаю что делать;
Увеличить КПД на 50% любых обучающих программ (тренингов, семинаров, коучинга, курсов);
Выработать свое чемпионское состояние («Я есть Чемпион»);
Обрести экспертность в новом деле за 21 день;
Раскрыть свой интеллектуальный потенциал по-максимуму;
Пропустить через себя более 20 текстов на русском и английском языках;
Углубить свой интуитивный канал принятия решений по "Н.А.И.Т.И.Ю";
Удивить конкурентов вертикальным (вверх ногами) скорочтением документов быстрее, чем они читают по-старинке;
Устранить боязнь толстых книг и наконец записаться в библиотеку;
Понять, где и в чем тормозите, и как это прокачать;
Найти узкое место в своей голове и понять почему Вами манипулируют СМИ;
Стать в 2 раза успешнее, ресурснее, богаче;
Развить стратегии разноскоростного чтения текстов;
Быстро ориентироваться в новой нише;
Стать первооткрывателем новых идей и Колумбом своего Успеха;
Высвободить 2 и более часов в сутках на любимое занятие;
Приобрести 8 часов дополнительного обучения во сне, каждые сутки;
Быстро получить ответы сверхсознания при мозговых штурмах;
Заложить фундамент для качественного усвоения новых навыков;
Освоить более 20 упражнений на развитие того, то Вам родители недодали в детстве;
Наконец-то стать доверять себе лучшему и открыть свои уникальные стороны;
Научиться достигать истинно свои цели в единстве со своим телом, узнав почему SMART- целеполагание уже не работает;
Наконец прочитать книги, купленные в прошлом году и ранее;
Увеличить словарный запас и найти время для творчества;
Встроить NITRO-систему поглощения информации прямо в свою голову;
Узнать секрет успеха NEO из к/ф "Матрица";
Стать душой компании и интересным собеседником;
Монетизировать полученные навыки уже во время обучения;
Будете использовать стратегию мегауспеха «чем сложнее задача, тем легче дается решение»;
Развить в себе основы альфа-лидерства;
Перевернуть систему образования с головы на ноги;
Полное имя : D:\Мои документы\Мои видеозаписи\Сподин А. – Мегаскорочтение. Перезагрузка мозга 2.0 (2013)\Урок 1\001 - Первый урок (3.06.2013)\МЕГАСКОРОЧТЕНИЕ Эволюция мозга Занятие 1.mp4
Формат : MPEG-4
Профиль формата : Base Media / Version 2
Идентификатор кодека : mp42
Размер файла : 1,05 Гбайт
Продолжительность : 2 ч. 15 м.
Режим общего битрейта : Переменный
Общий поток : 1110 Кбит/сек
Дата кодирования : UTC 2013-06-03 15:41:44
Дата пометки : UTC 2013-06-03 15:41:44
gsst : 0
gstd : 8139986
gssd : B4A7DDA87MH1370394144949992
gshh : r7---sn-4g57kue6.c.youtube.com

Видео
Идентификатор : 1
Формат : AVC
Формат/Информация : Advanced Video Codec
Профиль формата :
Параметр CABAC формата : Да
Параметр ReFrames формата : 1 кадр
Идентификатор кодека : avc1
Идентификатор кодека/Информация : Advanced Video Coding
Продолжительность : 2 ч. 15 м.
Битрейт : 916 Кбит/сек
Максимальный битрейт : 4114 Кбит/сек
Ширина : 1280 пикселей
Высота : 626 пикселей
Соотношение сторон : 2,045
Режим частоты кадров : Постоянный
Частота кадров : 15,000 кадров/сек
Цветовое пространство : YUV
Субдискретизация насыщенности : 4:2:0
Битовая глубина : 8 бит
Тип развёртки : Прогрессивная
Бит/(Пиксели*Кадры) : 0.076
Размер потока : 889 Мбайт (83%)
Дата пометки : UTC 2013-06-03 15:44:46

Аудио
Идентификатор : 2
Формат : AAC
Формат/Информация : Advanced Audio Codec
Профиль формата : LC
Идентификатор кодека : 40
Продолжительность : 2 ч. 15 м.
Вид битрейта : Переменный
Битрейт : 192 Кбит/сек
Максимальный битрейт : 201 Кбит/сек
Каналы : 2 канала
Расположение каналов : Front: L R
Частота : 44,1 КГц
Метод сжатия : С потерями
Размер потока : 186 Мбайт (17%)
Заголовок : IsoMedia File Produced by Google, 5-11-2011
Дата кодирования : UTC 2013-06-03 15:43:34
Дата пометки : UTC 2013-06-03 15:44:46
Скриншоты
:

Время раздачи: C 10-00 до 24-00
У вас нет необходимых прав для просмотра вложений в этом сообщении.