Видео


Сообщение

Видео Кто сектой называется (2012) WEBRip

Сообщение Tutorial » 30 ноя 2013, 07:13

Кто сектой называется... (2012) [WEBRip]

Русское название: Кто сектой называется...
Год выпуска: 2012
Страна: Россия
В ролях: Светана Пеунова / Разнеси Инфо
Жанр: Просветительский
Продолжительность: 00:14:40

Описание: Часто заказные материалы журналистов напоминают банальные бытовые сплетни, которые распространяют с неблаговидными целями. Мы привыкли верить СМИ как истине в последней инстанции. В нашу эпоху расцвета лжи, лицемерия и аморальности необходимо научиться не подпадать под чужое мнение, а составлять своё.

Качество: WEBRip
Формат: AVI
Видео кодек: DivX
Аудио кодек: MP3
Видео: 720x400 (1.80:1), 23.976 fps, DivX Codec 4.x ~1992 kbps avg, 0.25 bit/pixel
Аудио: 44.100 kHz, MPEG Layer 3, 2 ch, ~128.00 kbps avg
General
Complete name : C:\rusvera\antisekta.avi
Format : AVI
Format/Info : Audio Video Interleave
File size : 224 MiB
Duration : 14mn 40s
Overall bit rate : 2 134 Kbps
Writing application : Lavf52.32.0

Video
ID : 0
Format : MPEG-4 Visual
Format profile : Simple@L1
Format settings, BVOP : No
Format settings, QPel : No
Format settings, GMC : No warppoints
Format settings, Matrix : Default (H.263)
Codec ID : DIVX
Codec ID/Info : Project Mayo
Codec ID/Hint : DivX 4
Duration : 14mn 40s
Bit rate : 1 994 Kbps
Width : 720 pixels
Height : 400 pixels
Display aspect ratio : 16:9
Frame rate : 23.976 fps
Color space : YUV
Chroma subsampling : 4:2:0
Bit depth : 8 bits
Scan type : Progressive
Compression mode : Lossy
Bits/(Pixel*Frame) : 0.289
Stream size : 209 MiB (93%)
Writing library : Lavc52.22.3

Audio
ID : 1
Format : MPEG Audio
Format version : Version 1
Format profile : Layer 3
Mode : Joint stereo
Mode extension : MS Stereo
Codec ID : 55
Codec ID/Hint : MP3
Duration : 14mn 40s
Bit rate mode : Constant
Bit rate : 128 Kbps
Channel(s) : 2 channels
Sampling rate : 44.1 KHz
Compression mode : Lossy
Stream size : 13.4 MiB (6%)
Alignment : Aligned on interleaves
Interleave, duration : 26 ms (0.63 video frame)
Writing library : LAME3.98.2
Скриншоты:


Время раздачи: 24/7

Постеры

Соцсети

 

Статистика

Автор: Tutorial
Добавлен: 30 ноя 2013, 07:13
Размер: 223.88 МБ
Размер: 234 759 018 байт
Сидеров: 0
Личеров: 5
Скачали: 1
Здоровье: ???%
Скорость скачивания: 0 байт/сек
Скорость раздачи: 0 байт/сек
Последний сидер: 3 года 8 месяцев 17 дней 22 часа назад
Последний личер: 4 месяца 18 дней 22 часа 48 минут 51 секунду назад
Приватный: Нет (DHT включён)
Философия Скачать торрент
Скачать торрент
[ Размер 18.36 КБ / Просмотров 5 ]

Поделиться



Вернуться в Философия