Видео


Сообщение

Видео [Pluralsight] Introducing Cisco Data Center Networking (640-911) [2013, ENG]

Сообщение Tutorial » 06 дек 2013, 23:42

Introducing Cisco Data Center Networking (640-911)

Год выпуска: 2013
Производитель: Pluralsight
Сайт производителя: http://pluralsight.com/
Автор: Chris Wahl
Продолжительность: 6h 52m
Тип раздаваемого материала: Видеоклипы
Язык: Английский
Описание: Learn the essentials of Cisco Data Center Networking and prepare for the 640-911 certification exam, the first of two exams leading to the Cisco Certified Network Associate - Data Center (CCNA DC) certification. This exam aims to test a candidate's ability to handle a number of practical activities in a Nexus based networking environment, including access control, routing, and IP addressing. Any experience working with a Nexus or IOS based network would be valuable, but the course is focused on bringing an introductory level of knowledge to any level of candidate.

Изучите основы Cisco Networking ЦОД и подготовиться к 640-911 сертификационный экзамен, первый из двух экзаменов, ведущие к Cisco Certified Network Associate - Центр обработки данных (CCNA DC) сертификации. Этот экзамен преследует цель проверить способность кандидата для обработки ряда практических мероприятий в Nexus на основе сетевой среде, включая контроль доступа, маршрутизации и IP-адресации. Любой опыт работы с Nexus или IOS на основе сети будет ценным, но курс сосредоточены на обеспечении вводный уровень знаний до любого уровня кандидата.
Содержание
│ introducing-cisco-data-center-networking.zip

├───01. Introducing Cisco Data Center Networking
│ 01. Introduction.wmv
│ 02. Introducing the CCNA Data Center.wmv
│ 03. CCNA Data Center Exams.wmv
│ 04. CCNA DC Level Products.wmv
│ 05. Out of Scope for CCNA DC.wmv

├───02. The Basics
│ 01. Introduction.wmv
│ 02. Networking Hardware.wmv
│ 03. Repeaters.wmv
│ 04. Hubs.wmv
│ 05. Switches.wmv
│ 06. Routers.wmv
│ 07. Storage Area Networks (SANs).wmv

├───03. Network Diagrams and Topologies
│ 01. Introduction.wmv
│ 02. Common Networking Symbols.wmv
│ 03. Example Network Diagram.wmv
│ 04. Understanding Cisco Data Center Equipment.wmv
│ 05. Network Topologies.wmv

├───04. Data Flows and Value Conversions
│ 01. Introduction.wmv
│ 02. Value Conversion.wmv
│ 03. Converting Hex to Decimal.wmv
│ 04. TCP and UDP.wmv

├───05. The OSI Model
│ 01. Introduction.wmv
│ 02. The 7 OSI Model Layers.wmv
│ 03. The Upper Layers.wmv
│ 04. The Lower Layers.wmv
│ 05. Layer 3 - Network.wmv
│ 06. Layer 2 - Data Link.wmv
│ 07. Layer 1 - Physical.wmv

├───06. Virtual LANs (VLANs)
│ 01. Introduction.wmv
│ 02. An Ethernet Frame with 802.1Q Tag.wmv
│ 03. Access and Trunk Ports.wmv
│ 04. Setting Encapsulation Type.wmv
│ 05. Access and Trunk in Nexus.wmv
│ 06. Inter-VLAN Routing.wmv
│ 07. Your Mission Assignment.wmv
│ 08. Switch Virtual Interface Creation.wmv

├───07. Media Access Control
│ 01. Introduction.wmv
│ 02. Legacy Cabling Standards.wmv
│ 03. Modern Cabling Standards.wmv
│ 04. Connectors.wmv
│ 05. MAC Addresses.wmv
│ 06. Finding MAC and Switch MAC Addresses.wmv

├───08. Layer 2 Switching
│ 01. Introduction.wmv
│ 02. Switching Deep Dive.wmv
│ 03. Frame Folding.wmv
│ 04. Forwarding and Filtering Decisions.wmv
│ 05. Loop Avoidance.wmv

├───09. Configuring Advanced Layer 2
│ 01. Introduction.wmv
│ 02. VTP Modes.wmv
│ 03. VTP Modes and Configuration.wmv
│ 04. VTP Domain Examples.wmv
│ 05. VTP Pruning.wmv
│ 06. Spanning Tree Protocol (STP).wmv
│ 07. Exploring STP in a Live Switch.wmv
│ 08. The Non-Root Switches.wmv

├───10. IP Addressing Schemes
│ 01. Introduction.wmv
│ 02. Subnet Mask Examples.wmv
│ 03. Classful Addressing.wmv
│ 04. Classless Addressing.wmv
│ 05. Subnetting.wmv
│ 06. Supernetting.wmv
│ 07. Address Sizing.wmv

├───11. Public and Private IPs
│ 01. Introduction.wmv
│ 02. Private IP Addresses.wmv
│ 03. Choosing a Class.wmv
│ 04. Public IP Addresses.wmv
│ 05. Masking Math.wmv

├───12. Differentiating IPv4 and IPv6
│ 01. Introduction.wmv
│ 02. Major Differences at a Glance.wmv
│ 03. Host Addressing with IPv6.wmv
│ 04. Quirks with IPv6.wmv
│ 05. Invalid or Valid IPv6 Addresses.wmv

├───13. Routing Protocols
│ 01. Introduction.wmv
│ 02. Show IP Route.wmv
│ 03. Steps for Routing a Packet.wmv
│ 04. Routing Protocols.wmv
│ 05. Routed Port.wmv

├───14. Security Concepts
│ 01. Introduction.wmv
│ 02. Exploring Administrative Roles.wmv
│ 03. Security Features.wmv
│ 04. Access Control Lists (ACLs).wmv
│ 05. Creating an IP ACL.wmv
│ 06. Source Destination and Wildcards.wmv
│ 07. Creating Deny and Allow ACLs.wmv
│ 08. Implicit Deny.wmv

├───15. Cisco Switch Operation
│ 01. Introduction.wmv
│ 02. Bootup - Loader and Kickstart.wmv
│ 03. Gathering Software from Cisco.wmv
│ 04. Configuration Load.wmv
│ 05. Generic OnLine Diagnostics (GOLD).wmv
│ 06. Configuration.wmv
│ 07. Helpful Commands.wmv
│ 08. Using Commands in a Switch.wmv

└───16. Preparing for the 640-911 Exam
01. Introduction.wmv
02. Picking a Testing Center.wmv
03. Test Preparation.wmv
04. Test Day - Red Tape.wmv
05. Testing Day - During the Test.wmv
Файлы примеров: присутствуют
Формат видео: WMV
audio\video
General
Complete name : C:\04. TCP and UDP.wmv
Format : Windows Media
File size : 23.3 MiB
Duration : 6mn 26s
Overall bit rate mode : Constant
Overall bit rate : 506 Kbps
Maximum Overall bit rate : 583 Kbps
Encoded date : UTC 2013-10-28 22:50:53.559

Video
ID : 2
Format : VC-1
Format profile : Advanced@L2
Codec ID : WVC1
Codec ID/Hint : Microsoft
Description of the codec : VC-1 - VC-1 Advanced Profile
Duration : 6mn 26s
Bit rate mode : Constant
Bit rate : 384 Kbps
Width : 1 024 pixels
Height : 768 pixels
Display aspect ratio : 4:3
Frame rate : 15.000 fps
Color space : YUV
Chroma subsampling : 4:2:0
Bit depth : 8 bits
Scan type : Progressive
Compression mode : Lossy
Bits/(Pixel*Frame) : 0.033
Stream size : 17.7 MiB (76%)
Language : English (US)

Audio
ID : 1
Format : WMA
Format version : Version 2
Codec ID : 161
Codec ID/Info : Windows Media Audio
Description of the codec : Windows Media Audio 9.2 - 192 kbps, 48 kHz, stereo 1-pass CBR
Duration : 6mn 26s
Bit rate mode : Constant
Bit rate : 192 Kbps
Channel count : 2 channels
Sampling rate : 48.0 KHz
Bit depth : 16 bits
Stream size : 8.85 MiB (38%)
Language : English (US)
Скриншоты

Постеры

Соцсети

 

Статистика

Автор: Tutorial
Добавлен: 06 дек 2013, 23:42
Размер: 1.49 ГБ
Размер: 1 600 039 817 байт
Сидеров: 2
Личеров: 2
Скачали: 10
Здоровье: 100%
Раздающих: 20%
Скорость скачивания: 0 байт/сек
Скорость раздачи: 0 байт/сек
Последний сидер: 1 месяц 4 дня 44 минуты 54 секунды назад
Последний личер: 1 месяц 4 дня 44 минуты 54 секунды назад
Приватный: Нет (DHT включён)
Сеть и безопасность Скачать торрент
Скачать торрент
[ Размер 24.63 КБ / Просмотров 1 ]

Поделиться



  • Похожие торренты
    Ответы
    Просмотры
    Последнее сообщение

Вернуться в Сеть и безопасность