Знахарки / Отшельница, Выпуск 3 (Эфир от 22.10.2012) [2012, Документальный, SATRip]

НЛО, сверхъестественное, необъяснимое, аномальные зоны
Торрент Сидеров Личеров Размер
torrent_127938.torrent
0 1 588.84 МБ
Аватара пользователя
Tutorial
Сообщения: 9024
Зарегистрирован: 17 янв 2012, 23:53

Знахарки / Отшельница, Выпуск 3 (Эфир от 22.10.2012) [2012, Документальный, SATRip]

Сообщение Tutorial » 11 дек 2013, 00:05

Знахарки / Отшельница, Выпуск 3 (Эфир от 22.10.2012)

Год выпуска: 2012
Страна: Россия
Жанр: Документальный
Продолжительность: 00:46:01
Перевод: Не требуется

Описание: Знахарки - шарлатаны или люди с невероятными способностями?

Качество: SATRip
Формат: AVI
Видео кодек: XviD
Аудио кодек: MP3
Видео: XviD, 1500 Кбит/сек, 720x400 , 25 fps
Аудио: MP3, 2 ch, 48,0 КГц, 128 Кбит/сек
MI

Код: Выделить всё

Общее
Полное имя                       : E:\Downloads\55\Znaharki.vupysk 3.(22.10.2012).XviD.SATRip.avi
Формат                           : AVI
Формат/Информация                : Audio Video Interleave
Размер файла                     : 589 Мбайт
Продолжительность                : 50 м.
Общий поток                      : 1634 Кбит/сек
Программа кодирования            : TMPGEnc Video Mastering Works 5 Version. 5.0.6.38
Библиотека кодирования           : TMPGEnc Video Mastering Works 5 Version. 5.0.6.38
Правообладатель                  : Shuriman

Видео
Идентификатор                    : 0
Формат                           : MPEG-4 Visual
Профиль формата                  : Simple@L1
Параметр BVOP формата            : Нет
Параметр QPel формата            : Нет
Параметр GMC формата             : Без точки перехода
Параметр матрицы формата         : Default (H.263)
Идентификатор кодека             : XVID
Идентификатор кодека/Подсказка   : XviD
Продолжительность                : 50 м.
Битрейт                          : 1499 Кбит/сек
Ширина                           : 720 пикс.
Высота                           : 400 пикс.
Соотношение сторон               : 16:9
Частота кадров                   : 25,000 кадр/сек
Цветовое пространство            : YUV
Подвыборка цветности             : 4:2:0
Битовая глубина                  : 8 бит
Тип развёртки                    : Прогрессивная
Метод сжатия                     : С потерями
Бит/(Пиксели*Кадры)              : 0.208
Размер потока                    : 540 Мбайт (92%)
Библиотека кодирования           : Lavc52.41.0

Аудио
Идентификатор                    : 1
Формат                           : MPEG Audio
Версия формата                   : Version 1
Профиль формата                  : Layer 3
Режим                            : Joint stereo
Расширение режима                : MS Stereo
Идентификатор кодека             : 55
Идентификатор кодека/Подсказка   : MP3
Продолжительность                : 50 м.
Вид битрейта                     : Постоянный
Битрейт                          : 128 Кбит/сек
Каналы                           : 2 канала
Частота                          : 48,0 КГц
Метод сжатия                     : С потерями
Размер потока                    : 46,1 Мбайт (8%)
Выравнивание                     : Соединение по промежуткам
Продолжительность промежутка     : 250  мс. (6,25 видеокадров)
Время предзагрузки промежутка    : 192 ms
Раздача группы:

Раздача: Shuriman
Эфир от 22-10-2012 Скриншоты
У вас нет необходимых прав для просмотра вложений в этом сообщении.