Нацизм. Тайна НЛО / Nazi UFO Conspiracy (Херевард Пеллинг / Hereward Pelling) [2008 г., Документальный, HDTVRip], Discov

НЛО, сверхъестественное, необъяснимое, аномальные зоны
Торрент Сидеров Личеров Размер
torrent_127974.torrent
0 1 701.9 МБ
Аватара пользователя
Tutorial
Сообщения: 9024
Зарегистрирован: 17 янв 2012, 23:53

Нацизм. Тайна НЛО / Nazi UFO Conspiracy (Херевард Пеллинг / Hereward Pelling) [2008 г., Документальный, HDTVRip], Discov

Сообщение Tutorial » 11 дек 2013, 00:07

Нацизм. Тайна НЛО / Nazi UFO Conspiracy

Год выпуска: 2008
Страна: Flashback Television (Великобритания), Discovery Channel, LLC (США)
Жанр: Документальный
Продолжительность: 00:40:53
Перевод: Профессиональный (полное дублирование)*
Русские субтитры: нет
Описание: НЛО... Очевидцы, заслуживающие доверия, сообщают о невероятной маневренности летающих тарелок. Это корабли инопланетян или обман зрения? А, может, что-то более зловещее? Это программа о тайнах секретного оружия нацистов и послевоенном заговоре молчания о тайне НЛО, неразгаданной и по сей день

Доп. информация: Релиз студии: Кинозал
Автор рипа - supernova, синхронизация русской дорожки и автор постера - nyctalus, использована иллюстрация Джеймса Николса (Jim Nichols)

*Перевод: Профессиональный (полное дублирование) в данном случае означает полное дублирование только голоса рассказчика, комментарии ученых - одноголосый.

Смотрите этот же фильм в формате 720p --> http://rutracker.org/forum/viewtopic.php?t=3392673

Качество: HDTVRip
Формат: AVI
Видео кодек: XviD
Аудио кодек: AC3
Видео: XviD, 1810 Кбит/с, 704x400, 29.970 fps
Аудио: Русский (AC3, 2 ch, 192 Кбит/с, 48 kHz), английский (AC3, 6 ch, 384 Кбит/с, 48 kHz)
Скриншоты
MediaInfo
General
Complete name : Nacizm.Tajna.NLO.2008.XviD.SATRip(HDTVRip)_Kinozal.TV.avi
Format : AVI
Format/Info : Audio Video Interleave
File size : 702 MiB
Duration : 40mn 49s
Overall bit rate : 2 404 Kbps
Writing application : VirtualDubMod 1.5.10.2 (build 2542/release)
Writing library : VirtualDubMod build 2542/release
Video #0
ID : 0
Format : MPEG-4 Visual
Format profile : AdvancedSimple@L5
Format settings, BVOP : Yes
Format settings, QPel : No
Format settings, GMC : No warppoints
Format settings, Matrix : Custom
Codec ID : XVID
Codec ID/Hint : XviD
Duration : 40mn 49s
Bit rate : 1 810 Kbps
Width : 704 pixels
Height : 400 pixels
Display aspect ratio : 16:9
Frame rate : 29.970 fps
Resolution : 24 bits
Colorimetry : 4:2:0
Scan type : Progressive
Bits/(Pixel*Frame) : 0.214
Stream size : 529 MiB (75%)
Writing library : XviD 1.2.1 (UTC 2008-12-04)
Audio #1
ID : 1
Format : AC-3
Format/Info : Audio Coding 3
Codec ID : 2000
Duration : 40mn 49s
Bit rate mode : Constant
Bit rate : 192 Kbps
Channel(s) : 2 channels
Channel positions : L R
Sampling rate : 48.0 KHz
Stream size : 56.1 MiB (8%)
Alignment : Split accross interleaves
Interleave, duration : 33 ms (1.00 video frame)
Interleave, preload duration : 500 ms
Audio #2
ID : 2
Format : AC-3
Format/Info : Audio Coding 3
Codec ID : 2000
Duration : 40mn 49s
Bit rate mode : Constant
Bit rate : 384 Kbps
Channel(s) : 6 channels
Channel positions : Front: L C R, Surround: L R, LFE
Sampling rate : 48.0 KHz
Stream size : 112 MiB (16%)
Alignment : Split accross interleaves
Interleave, duration : 33 ms (1.00 video frame)
Interleave, preload duration : 500 ms
Сравнение с имеющейся раздачей
http://rutracker.org/forum/viewtopic.php?t=2260613

http://screenshotcomparison.com/compari ... /picture:0
шире кадр, полный кроп, улучшена четкость
перевод абсолютно одинаков - рассказчик меняет интонацию голоса
У вас нет необходимых прав для просмотра вложений в этом сообщении.