Охотники за привидениями / Выпуск 80 (Эфир от 15.01.2013) [2013, Документальный, SATRip]

НЛО, сверхъестественное, необъяснимое, аномальные зоны
Торрент Сидеров Личеров Размер
torrent_128027.torrent
0 0 330.92 МБ
Аватара пользователя
Tutorial
Сообщения: 9024
Зарегистрирован: 17 янв 2012, 23:53

Охотники за привидениями / Выпуск 80 (Эфир от 15.01.2013) [2013, Документальный, SATRip]

Сообщение Tutorial » 11 дек 2013, 00:13

Охотники за привидениями / Выпуск 80 (Эфир от 15.01.2013)

Год выпуска: 2013
Страна: Россия
Жанр: Документальный
Продолжительность: 00:28:19
Перевод: Не требуется

Описание: Первое реалити-шоу телеканала ТВ3 «Охотники за привидениями» – это уникальный, не имеющий аналогов проект. Это проект, который заставил трепетать от страха даже съемочную группу!
Мир полон загадок, и многие вещи в нем не поддаются логическому объяснению. Но это вовсе не означает, что этих вещей не существует. Команда телеканала ТВ3 решилась на невозможное – заглянуть в параллельную вселенную. Мы создали необычное агентство, главная задача которого – помочь людям разобраться с паранормальными явлениями в их жизни.

В выпуске: Мужчина заявляет, что в его квартире в последнее время творится что-то неладное. Причем от этого страдает не только он сам, но и его невеста. Приглашенный экстрасенс предполагает, что источник всех бед находится за стеной, в соседней квартире.


Качество: SATRip
Формат: AVI
Видео кодек: DivX
Аудио кодек: MP3
Видео: DviX 5, 1504 Kbps, 704x528, 25.000 fps
Аудио: MP3, 128 Kbps, 48.00 Hz, 2ch
MI

Код: Выделить всё

Общее
Полное имя                       : E:\Downloads\ОХОТНИКИ ЗА ПРИВИДЕНИЯМИ\Ohotniki za privideniyami.(80.vupysk).(15.01.2013).DivX.SATRip.avi
Формат                           : AVI
Формат/Информация                : Audio Video Interleave
Размер файла                     : 331 Мбайт
Продолжительность                : 28 м.
Общий поток                      : 1642 Кбит/сек
Программа кодирования            : VirtualDubModRus 1.5.10.2 (build 2542/release)
Библиотека кодирования           : VirtualDub build 24442/release
Правообладатель                  : Shuriman

Видео
Идентификатор                    : 0
Формат                           : MPEG-4 Visual
Параметр BVOP формата            : 1
Параметр QPel формата            : Нет
Параметр GMC формата             : Без точки перехода
Параметр матрицы формата         : Default (H.263)
Режим смешивания                 : Сжатый битовый поток
Идентификатор кодека             : DX50
Идентификатор кодека/Подсказка   : DivX 5
Продолжительность                : 28 м.
Битрейт                          : 1504 Кбит/сек
Ширина                           : 704 пикс.
Высота                           : 528 пикс.
Соотношение сторон               : 4:3
Частота кадров                   : 25,000 кадр/сек
Цветовое пространство            : YUV
Подвыборка цветности             : 4:2:0
Битовая глубина                  : 8 бит
Тип развёртки                    : Прогрессивная
Метод сжатия                     : С потерями
Бит/(Пиксели*Кадры)              : 0.162
Размер потока                    : 303 Мбайт (92%)
Библиотека кодирования           : DivX 6.8.5 (UTC 2009-08-20)

Аудио
Идентификатор                    : 1
Формат                           : MPEG Audio
Версия формата                   : Version 1
Профиль формата                  : Layer 3
Режим                            : Joint stereo
Расширение режима                : MS Stereo
Идентификатор кодека             : 55
Идентификатор кодека/Подсказка   : MP3
Продолжительность                : 28 м.
Вид битрейта                     : Постоянный
Битрейт                          : 128 Кбит/сек
Каналы                           : 2 канала
Частота                          : 48,0 КГц
Метод сжатия                     : С потерями
Задержка видео                   : 8 мс.
Размер потока                    : 25,8 Мбайт (8%)
Выравнивание                     : Разделение по промежуткам
Продолжительность промежутка     : 40  мс. (1,00 видеокадр)
Время предзагрузки промежутка    : 500 ms
Раздача группы:

Релиз: Shuriman
Эфир от 15-01-2013 Скриншоты
У вас нет необходимых прав для просмотра вложений в этом сообщении.