Видео


Сообщение

Видео Школа Программирования | Javascript Интерактивные веб-приложения (2013) [PCRec]

Сообщение Nik » 12 дек 2013, 23:11

Школа Программирования | Javascript Интерактивные веб-приложения (2013) [PCRec]

Автор (режиссер): Школа Программирования
Название: Javascript Интерактивные веб-приложения
Год выпуска: 2013
Жанр: Программирование
Продолжительность: 06:05:00
Качество видео: PCRec
Видеокодек: AVC
Битрейт видео: ~55,5 kb/s, 15 FPS
Размер кадра: 800x600
Аудиокодек: AAC
Битрейт аудио: 93,6 kb/s (CBR), 2 Ch, 44100 Hz

Описание:
Курс охватывает основы создания интерактивных веб-страниц с помощью языка JavaScript и объектно-ориентированному программированию.

Основной упор в курсе сделан на практических заданиях, что позволяет лучше усвоить материал и закрепить полученные знания.

Вы получите навыки использования современной технологии AJAX, которые позволят вывести Ваши веб-приложения на принципиально новый уровень интерактивности, соизмеримый с лучшими представителями современных интернет-сервисов.

Использование фреймворка JQuery и JQuery UI позволит легко и элегантно организовать логику работы веб-приложений любой сложности на стороне клиента.

Вы также научитесь основным средствам коммуникации в HTML 5 с использованием новых технологий Web-sockets, Server-sent events и Web-workers.
Общее
Полное имя : D:\Загрузки\Javascript\lesson1\lesson1.avi
Формат : MPEG-4
Профиль формата : Base Media / Version 2
Идентификатор кодека : mp42
Размер файла : 75,6 Мбайт
Продолжительность : 1 ч. 10 м.
Общий поток : 151 Кбит/сек
Дата кодирования : UTC 2011-07-14 21:50:47
Дата пометки : UTC 2011-07-14 21:50:47

Видео
Идентификатор : 1
Формат : AVC
Формат/Информация : Advanced Video Codec
Профиль формата :
Параметр CABAC формата : Да
Параметр ReFrames формата : 4 кадра
Идентификатор кодека : avc1
Идентификатор кодека/Информация : Advanced Video Coding
Продолжительность : 1 ч. 10 м.
Продолжительность оригинала : 1 ч. 10 м.
Вид битрейта : Переменный
Битрейт : 55,5 Кбит/сек
Ширина : 800 пикселей
Высота : 600 пикселей
Соотношение сторон : 4:3
Режим частоты кадров : Постоянный
Частота кадров : 15,000 кадров/сек
Цветовое пространство : YUV
Субдискретизация насыщенности : 4:2:0
Битовая глубина : 8 бит
Тип развёртки : Прогрессивная
Бит/(Пиксели*Кадры) : 0.008
Размер потока : 27,8 Мбайт (37%)
Размер потока оригинала : 27,8 Мбайт (37%)
Язык : English
Дата кодирования : UTC 2011-07-14 21:50:47
Дата пометки : UTC 2011-07-14 21:50:47
mdhd_Duration : 4199662
Основные цвета : BT.709
Характеристики трансфера : BT.709
Коэффициенты матрицы : BT.709

Аудио
Идентификатор : 2
Формат : AAC
Формат/Информация : Advanced Audio Codec
Профиль формата : LC
Идентификатор кодека : 40
Продолжительность : 1 ч. 10 м.
Продолжительность оригинала : 1 ч. 10 м.
Вид битрейта : Постоянный
Битрейт : 93,6 Кбит/сек
Каналы : 2 канала
Расположение каналов : Front: L R
Частота : 44,1 КГц
Метод сжатия : С потерями
Размер потока : 46,8 Мбайт (62%)
Размер потока оригинала : 46,8 Мбайт (62%)
Язык : English
Дата кодирования : UTC 2011-07-14 21:50:47
Дата пометки : UTC 2011-07-14 21:50:47
mdhd_Duration : 4197025
Скриншоты:


Время раздачи: 10:00 до 20:00

Постеры

Соцсети

 

Статистика

Автор: Nik
Добавлен: 12 дек 2013, 23:11
Размер: 374.03 МБ
Размер: 392 197 132 байт
Сидеров: 218
Личеров: 18
Скачали: 42
Здоровье: 100%
Раздающих: 100%
Скорость скачивания: 0 байт/сек
Скорость раздачи: 0 байт/сек
Последний сидер: 3 дня 14 часов 18 минут 17 секунд назад
Последний личер: 3 дня 14 часов 18 минут 17 секунд назад
Приватный: Нет (DHT включён)
Скачать торрент
Скачать торрент
[ Размер 82.1 КБ / Просмотров 168 ]

Поделиться



  • Похожие торренты
    Ответы
    Просмотры
    Последнее сообщение

Вернуться в JavaScript