Видео


Сообщение

Видео Сихан Курибояси Краснодар 2003 / Курибаяси Краснодар Июнь 2003 [2003, Айкидо, VHSRip, RUS] (Видеоурок)

Сообщение master » 14 дек 2013, 00:43

Сихан Курибаяси Краснодар 2003/ Айкидо Курибаяси 7 дан

Страна: россия
Тематика: Айкидо
Тип раздаваемого материала: Видеоурок
Продолжительность: 1:03:29
Год выпуска: 2003

Язык: Русский
Перевод: Не требуется

Описание: Семинар по Айкидо Айкикай под руководством инструктора Хомбу Дозё Курибаяси Таканори 7 дан, (ФААР) проводимый клубом "Оосинкан" в Краснодаре 2003 г.

Качество: VHSRip
Формат: AVI
Видео кодек: DivX
Аудио кодек: AC3
Видео: 640:480
Аудио: 128
Скриншоты


Информация
Format : AVI
Format/Info : Audio Video Interleave
File size : 1 001 MiB
Duration : 1h 3mn
Overall bit rate : 2 203 Kbps
Writing library : VirtualDub build 23174/release
Video #0
ID : 0
Format : MPEG-4 Visual
Format settings, BVOP : 1
Format settings, QPel : No
Format settings, GMC : No warppoints
Format settings, Matrix : Default (H.263)
Muxing mode : Packed bitstream
Codec ID : DX50
Codec ID/Hint : DivX 5
Duration : 1h 3mn
Bit rate : 781 Kbps
Width : 640 pixels
Height : 480 pixels
Display aspect ratio : 4:3
Frame rate : 30.000 fps
Color space : YUV
Chroma subsampling : 4:2:0
Bit depth : 8 bits
Scan type : Progressive
Compression mode : Lossy
Bits/(Pixel*Frame) : 0.085
Stream size : 354 MiB (35%)
Writing library : DivX 5.2.1 (WaffleDay) (UTC 2004-09-08)
Audio #1
ID : 1
Format : PCM
Format settings, Endianness : Little
Format settings, Sign : Signed
Codec ID : 1
Codec ID/Hint : Microsoft
Duration : 1h 3mn
Bit rate mode : Constant
Bit rate : 1 411.2 Kbps
Channel(s) : 2 channels
Sampling rate : 44.1 KHz
Bit depth : 16 bits
Stream size : 641 MiB (64%)
Interleave, duration : 33 ms (1.00 video frame)
Interleave, preload duration : 500 ms о потоке"]

Постеры

Соцсети

 

Статистика

Автор: master
Добавлен: 14 дек 2013, 00:43
Размер: 1000.56 МБ
Размер: 1 049 167 656 байт
Сидеров: 0
Личеров: 0
Скачали: 0
Здоровье: 0%
Скорость скачивания: 0 байт/сек
Скорость раздачи: 0 байт/сек
Последний сидер: Нет
Последний личер: Нет
Приватный: Нет (DHT включён)
Скачать торрент
Скачать торрент
[ Размер 20.12 КБ / Просмотров 0 ]

Поделиться



Вернуться в Айкидо и дзюцу