Видео


Сообщение

Видео Сенсей Хироказу Кобаяши, 8 Дан / Maître Hirokazu KOBAYASHI, 8e dan, Aix-en-Provence, 1992 [2006 г., Айкидо, DVD5]

Сообщение master » 14 дек 2013, 00:46

Сенсей Хироказу Кобаяши, 8 Дан / Maître Hirokazu KOBAYASHI, 8e dan, Aix-en-Provence, 1992

Год выпуска: 2006
Вид спорта: Айкидо
Участники: Хироказу Кобояши / Участники семинара
Продолжительность: 49 мин.
Комментарий: Любительский (двухголосый)
Язык комментариев: японский + последовательный французкий
Описание: В представленной записи присутствует семинар проведенный мастером в 1992 году в Aix-en-Provence, Франция. Релиз представлен Мутокакай Видео.

Представленные техники
Katatedori : iriminage /
kotegaeshi / shihonage
Yokomenuchi : iriminage / nikyo
Bokken : travail d’irimi / kirikaeshi
Morotedori : kokyunage, etc.
Доп. информация: Hirokazu KOBAYASHI (1929 - 1998) fut une des figures essentielles de l’histoire de l’aïkido en Europe. Un des premiers à visiter régulièrement nos pays, il s’est attaché à un groupe de disciples enthousiastes et indépendants des grandes organisations nationales. Son style allie une très grande pureté d’exécution à la puissance et à l’élégance du déplacement. Ce document filmé lors d’un stage comprend une longue séancede travail au bokken où Maître KOBAYASHI s’affirme comme le continuateur du style créé par Morihei UESHIBA.
Качество: DVD5
Формат: DVD Video
Видео кодек: MPEG1
Аудио кодек: DVD-AUDIO
Видео: PAL 4:3 (720x576) VBR Frame rate: 25.000 fps
Аудио: Francais (LinearPCM, 2 ch) Sampling rate: 48.0 KHz Resolution: 16 bits

РАЗДАЧА РАБОТАЕТ ПО СРЕДНЕЕВРОПЕЙСКОМУ ВРЕМЕНИ примерно с 9:00 по 23:00
данные диска
Title: Kobayashi_1992
Size: 3.30 Gb ( 3 462 216 KBytes ) - DVD-5
Enabled regions: 1, 2, 3, 4, 5, 6, 7, 8

VTS_01 :
Play Length: 00:00:22
Video: PAL 4:3 (720x576) VBR
Audio:
Francais (MPEG1, 2 ch)

VTS_02 :
Play Length: 00:49:29
Video: PAL 4:3 (720x576) VBR
Audio:
Francais (LinearPCM, 2 ch)
развёрнутые данные диска
General
Complete name : D:\\VIDEO_TS\VIDEO_TS.BUP
Format : DVD Video
Format profile : Menu
File size : 16.0 KiB

Video
ID : 0xE0
Format : MPEG Video
Format version : Version 2
Bit rate mode : Variable
Width : 720 pixels
Height : 576 pixels
Display aspect ratio : 4:3
Frame rate : 25.000 fps
Standard : PAL

Text
Format : RLE
Format/Info : Run-length encoding
Resolution : 2 bits

General
Complete name : D:\\VIDEO_TS\VIDEO_TS.IFO
Format : DVD Video
Format profile : Menu
File size : 16.0 KiB

Video
ID : 0xE0
Format : MPEG Video
Format version : Version 2
Bit rate mode : Variable
Width : 720 pixels
Height : 576 pixels
Display aspect ratio : 4:3
Frame rate : 25.000 fps
Standard : PAL

Text
Format : RLE
Format/Info : Run-length encoding
Resolution : 2 bits

General
Complete name : D:\\VIDEO_TS\VIDEO_TS.VOB
Format : MPEG-PS
File size : 10.0 KiB
Duration : 40ms
Overall bit rate : 2 048 Kbps

Video
ID : 224 (0xE0)
Format : MPEG Video
Format version : Version 2
Format profile : Main@Main
Format settings, Matrix : Default
Duration : 40ms
Bit rate mode : Constant
Bit rate : 9 000 Kbps
Width : 720 pixels
Height : 576 pixels
Display aspect ratio : 4:3
Frame rate : 25.000 fps
Standard : PAL
Colorimetry : 4:2:0
Scan type : Progressive
Scan order : Top Field First
Bits/(Pixel*Frame) : 0.868
Stream size : 43.9 KiB

Menu

General
Complete name : D:\\VIDEO_TS\VTS_01_0.BUP
Format : DVD Video
Format profile : Program
File size : 18.0 KiB

Video
ID : 0xE0
Format : MPEG Video
Format version : Version 2
Bit rate mode : Variable
Width : 720 pixels
Height : 576 pixels
Display aspect ratio : 4:3
Frame rate : 25.000 fps
Standard : PAL

Audio
ID : 0x0
Format : MPEG Audio
Format profile : Version 1
Channel(s) : 2 channels
Sampling rate : 48.0 KHz
Resolution : 16 bits
Language : French

Menu
List (Audio) : 0

General
Complete name : D:\\VIDEO_TS\VTS_01_0.IFO
Format : DVD Video
Format profile : Program
File size : 18.0 KiB

Video
ID : 0xE0
Format : MPEG Video
Format version : Version 2
Bit rate mode : Variable
Width : 720 pixels
Height : 576 pixels
Display aspect ratio : 4:3
Frame rate : 25.000 fps
Standard : PAL

Audio
ID : 0x0
Format : MPEG Audio
Format profile : Version 1
Channel(s) : 2 channels
Sampling rate : 48.0 KHz
Resolution : 16 bits
Language : French

Menu
List (Audio) : 0

General
Complete name : D:\\VIDEO_TS\VTS_01_0.VOB
Format : MPEG-PS
File size : 178 KiB

Video
ID : 224 (0xE0)
Format : MPEG Video
Format version : Version 2
Format profile : Main@Main
Format settings, Matrix : Default
Bit rate mode : Constant
Bit rate : 9 000 Kbps
Width : 720 pixels
Height : 576 pixels
Display aspect ratio : 4:3
Frame rate : 25.000 fps
Standard : PAL
Colorimetry : 4:2:0
Scan type : Progressive
Scan order : Top Field First
Bits/(Pixel*Frame) : 0.868

Text
ID : 32 (0x20)
Format : RLE
Format/Info : Run-length encoding
Video delay : 50ms

Menu

General
Complete name : D:\\VIDEO_TS\VTS_01_1.VOB
Format : MPEG-PS
File size : 21.9 MiB
Duration : 22s 80ms
Overall bit rate : 8 322 Kbps

Video
ID : 224 (0xE0)
Format : MPEG Video
Format version : Version 2
Format profile : Main@Main
Format settings, Matrix : Default
Duration : 22s 80ms
Bit rate mode : Constant
Bit rate : 7 767 Kbps
Nominal bit rate : 8 000 Kbps
Width : 720 pixels
Height : 576 pixels
Display aspect ratio : 4:3
Frame rate : 25.000 fps
Standard : PAL
Colorimetry : 4:2:0
Scan type : Interlaced
Scan order : Bottom Field First
Bits/(Pixel*Frame) : 0.749
Stream size : 20.4 MiB (93%)

Audio
ID : 192 (0xC0)
Format : MPEG Audio
Format version : Version 1
Format profile : Layer 2
Duration : 21s 984ms
Bit rate mode : Constant
Bit rate : 224 Kbps
Channel(s) : 2 channels
Sampling rate : 48.0 KHz
Resolution : 16 bits
Stream size : 601 KiB (3%)

Menu

General
Complete name : D:\\VIDEO_TS\VTS_02_0.BUP
Format : DVD Video
Format profile : Program
File size : 38.0 KiB

Video
ID : 0xE0
Format : MPEG Video
Format version : Version 2
Bit rate mode : Variable
Width : 720 pixels
Height : 576 pixels
Display aspect ratio : 4:3
Frame rate : 25.000 fps
Standard : PAL

Audio
ID : 0x0
Format : PCM
Channel(s) : 2 channels
Sampling rate : 48.0 KHz
Language : French

Menu
List (Audio) : 0

General
Complete name : D:\\VIDEO_TS\VTS_02_0.IFO
Format : DVD Video
Format profile : Program
File size : 38.0 KiB

Video
ID : 0xE0
Format : MPEG Video
Format version : Version 2
Bit rate mode : Variable
Width : 720 pixels
Height : 576 pixels
Display aspect ratio : 4:3
Frame rate : 25.000 fps
Standard : PAL

Audio
ID : 0x0
Format : PCM
Channel(s) : 2 channels
Sampling rate : 48.0 KHz
Language : French

Menu
List (Audio) : 0

General
Complete name : D:\\VIDEO_TS\VTS_02_0.VOB
Format : MPEG-PS
File size : 10.0 KiB
Duration : 40ms
Overall bit rate : 2 048 Kbps

Video
ID : 224 (0xE0)
Format : MPEG Video
Format version : Version 2
Format profile : Main@Main
Format settings, Matrix : Default
Duration : 40ms
Bit rate mode : Constant
Bit rate : 9 000 Kbps
Width : 720 pixels
Height : 576 pixels
Display aspect ratio : 4:3
Frame rate : 25.000 fps
Standard : PAL
Colorimetry : 4:2:0
Scan type : Progressive
Scan order : Top Field First
Bits/(Pixel*Frame) : 0.868
Stream size : 43.9 KiB

Menu

General
Complete name : D:\\VIDEO_TS\VTS_02_1.VOB
Format : MPEG-PS
File size : 1 024 MiB
Duration : 15mn 5s
Overall bit rate : 9 488 Kbps

Video
ID : 224 (0xE0)
Format : MPEG Video
Format version : Version 2
Format profile : Main@Main
Format settings, Matrix : Default
Duration : 15mn 5s
Bit rate mode : Constant
Bit rate : 7 575 Kbps
Nominal bit rate : 7 800 Kbps
Width : 720 pixels
Height : 576 pixels
Display aspect ratio : 4:3
Frame rate : 25.000 fps
Standard : PAL
Colorimetry : 4:2:0
Scan type : Interlaced
Scan order : Bottom Field First
Bits/(Pixel*Frame) : 0.731
Stream size : 818 MiB (80%)

Audio
ID : 160 (0xA0)
Format : PCM
Format settings, Endianness : Big
Format settings, Sign : Signed
Muxing mode : DVD-Video
Duration : 15mn 5s
Bit rate mode : Constant
Bit rate : 1 536 Kbps
Channel(s) : 2 channels
Channel positions : Front: L R
Sampling rate : 48.0 KHz
Resolution : 16 bits
Stream size : 166 MiB (16%)

Menu

General
Complete name : D:\\VIDEO_TS\VTS_02_2.VOB
Format : MPEG-PS
File size : 1 024 MiB
Duration : 15mn 5s
Overall bit rate : 9 489 Kbps

Video
ID : 224 (0xE0)
Format : MPEG Video
Format version : Version 2
Format profile : Main@Main
Format settings, Matrix : Default
Duration : 15mn 4s
Bit rate mode : Constant
Bit rate : 7 577 Kbps
Nominal bit rate : 7 800 Kbps
Width : 720 pixels
Height : 576 pixels
Display aspect ratio : 4:3
Frame rate : 25.000 fps
Standard : PAL
Colorimetry : 4:2:0
Scan type : Interlaced
Scan order : Bottom Field First
Bits/(Pixel*Frame) : 0.731
Stream size : 817 MiB (80%)

Audio
ID : 160 (0xA0)
Format : PCM
Format settings, Endianness : Big
Format settings, Sign : Signed
Muxing mode : DVD-Video
Duration : 15mn 5s
Bit rate mode : Constant
Bit rate : 1 536 Kbps
Channel(s) : 2 channels
Channel positions : Front: L R
Sampling rate : 48.0 KHz
Resolution : 16 bits
Video delay : -553ms
Stream size : 166 MiB (16%)

Menu

General
Complete name : D:\\VIDEO_TS\VTS_02_3.VOB
Format : MPEG-PS
File size : 1 024 MiB
Duration : 15mn 5s
Overall bit rate : 9 490 Kbps

Video
ID : 224 (0xE0)
Format : MPEG Video
Format version : Version 2
Format profile : Main@Main
Format settings, Matrix : Default
Duration : 15mn 4s
Bit rate mode : Constant
Bit rate : 7 577 Kbps
Nominal bit rate : 7 800 Kbps
Width : 720 pixels
Height : 576 pixels
Display aspect ratio : 4:3
Frame rate : 25.000 fps
Standard : PAL
Colorimetry : 4:2:0
Scan type : Interlaced
Scan order : Bottom Field First
Bits/(Pixel*Frame) : 0.731
Stream size : 817 MiB (80%)

Audio
ID : 160 (0xA0)
Format : PCM
Format settings, Endianness : Big
Format settings, Sign : Signed
Muxing mode : DVD-Video
Duration : 15mn 5s
Bit rate mode : Constant
Bit rate : 1 536 Kbps
Channel(s) : 2 channels
Channel positions : Front: L R
Sampling rate : 48.0 KHz
Resolution : 16 bits
Video delay : -525ms
Stream size : 166 MiB (16%)

Menu

General
Complete name : D:\\VIDEO_TS\VTS_02_4.VOB
Format : MPEG-PS
File size : 287 MiB
Duration : 4mn 13s
Overall bit rate : 9 486 Kbps

Video
ID : 224 (0xE0)
Format : MPEG Video
Format version : Version 2
Format profile : Main@Main
Format settings, Matrix : Default
Duration : 4mn 13s
Bit rate mode : Constant
Bit rate : 7 574 Kbps
Nominal bit rate : 7 800 Kbps
Width : 720 pixels
Height : 576 pixels
Display aspect ratio : 4:3
Frame rate : 25.000 fps
Standard : PAL
Colorimetry : 4:2:0
Scan type : Interlaced
Scan order : Bottom Field First
Bits/(Pixel*Frame) : 0.730
Stream size : 229 MiB (80%)

Audio
ID : 160 (0xA0)
Format : PCM
Format settings, Endianness : Big
Format settings, Sign : Signed
Muxing mode : DVD-Video
Duration : 4mn 13s
Bit rate mode : Constant
Bit rate : 1 536 Kbps
Channel(s) : 2 channels
Channel positions : Front: L R
Sampling rate : 48.0 KHz
Resolution : 16 bits
Video delay : -416ms
Stream size : 46.5 MiB (16%)

Menu
Скриншоты

Постеры

Соцсети

 

Статистика

Автор: master
Добавлен: 14 дек 2013, 00:46
Размер: 3.3 ГБ
Размер: 3 545 309 184 байт
Сидеров: 192
Личеров: 0
Скачали: 0
Здоровье: 100%
Раздающих: 100%
Скорость скачивания: 0 байт/сек
Скорость раздачи: 0 байт/сек
Последний сидер: 2 года 5 месяцев 18 дней 15 минут 25 секунд назад
Последний личер: Нет
Приватный: Нет (DHT включён)
Скачать торрент
Скачать торрент
[ Размер 17.54 КБ / Просмотров 1 ]

Поделиться



Вернуться в Айкидо и дзюцу