Видео


Сообщение

Видео Одиссея Айкидо- Кристьян Тиссье / Christian Tissier- An Aikido Odyssey [2008 г., АЙКИДО, DVDRip]

Сообщение master » 14 дек 2013, 00:55

Одиссея Айкидо- Кристьян Тиссье / Christian Tissier- An Aikido Odyssey

Год выпуска: 2008
Вид спорта: АЙКИДО
Участники: Кристьян Тиссье и др.
Продолжительность: 01:26:09
Язык комментариев: Французский и английский
Описание: Этот DVDRip познакомит вас с одним из самых выдающихся мастеров Айкидо
современности Кристьяном Тиссье (Christian Tissier), 7-й дан Айкидо Айкикай.
Начав тренироваться еще в 1962 году во Франции, Тиссье провел 8 лет в
Японии изучая Айкидо под руководством лучших мастеров Хомбу-Додзё.
По возвращению на родину, он представил публике новое Айкидо, которое
вскорости захватило умы и сердца адептов как во Франции, так и во всей Европе.
На сегодняшний день Кристьян Тиссье является ведущим мастером
Французской Федерации Айкидо Айкикай — одной из двух крупнейших Ассоциаций Айкидо во Франции.
Качество: DVDRip
Формат: AVI
Видео кодек: XviD
Аудио кодек: MP3
Видео:
VideoFormat : MPEG-4 Visual
Format profile : Simple@L1
Format settings, BVOP : No
Format settings, QPel : No
Format settings, GMC : No warppoints
Format settings, Matrix : Default
Codec ID : XVID
Codec ID/Hint : XviD
Duration : 1h 26mn
Bit rate : 1409 Kbps
Width : 416 pixels
Height : 320 pixels
Display aspect ratio : 1.300
Frame rate : 29.970 fps
Resolution : 8 bits
Colorimetry : 4:2:0
Scan type : Progressive
Bits/(Pixel*Frame) : 0.353
Stream size : 876 MiB (91%)
Writing library : Lavc51.40.2
Аудио:
AudioFormat : MPEG Audio
Format version : Version 1
Format profile : Layer 3
Codec ID : 55
Codec ID/Hint : MP3
Duration : 1h 26mn
Bit rate mode : Constant
Bit rate : 128 Kbps
Channel(s) : 2 channels
Sampling rate : 44.1 KHz
Resolution : 16 bits
Stream size : 79.6 MiB (8%)
Alignment : Aligned on interleaves
Interleave, duration : 26 ms (0.78 video frame)
Interleave, preload duration : 522 ms
Writing library : LAME3.97

Скриншоты

Постеры

Соцсети

 

Статистика

Автор: master
Добавлен: 14 дек 2013, 00:55
Размер: 964.3 МБ
Размер: 1 011 139 610 байт
Сидеров: 0
Личеров: 0
Скачали: 0
Здоровье: 0%
Скорость скачивания: 0 байт/сек
Скорость раздачи: 0 байт/сек
Последний сидер: Нет
Последний личер: 2 года 2 месяца 22 дня 6 часов 45 минут 30 секунд назад
Приватный: Нет (DHT включён)
Скачать торрент
Скачать торрент
[ Размер 75.96 КБ / Просмотров 1 ]

Поделиться



Вернуться в Айкидо и дзюцу