Видео


Сообщение

Видео Рахим Давлеткалиев | Курс по JavaScript (2013) [PCRec]

Сообщение Smartbot » 10 янв 2014, 01:01

Рахим Давлеткалиев | Курс по JavaScript (2013) [PCRec]

Автор (режиссер): Рахим Давлеткалиев
Название: Курс по JavaScript
Год выпуска: 2013
Жанр: Программирование
Продолжительность: 04:41:33
Качество видео: PCRec
Видеокодек: AVC
Битрейт видео: ~243 kb/s, 30,000 FPS
Размер кадра: 1152х720
Аудиокодек: AAC
Битрейт аудио: 144 kb/s (CBR), 1 Ch, 44100 Hz

Описание:
Полный курс по самому распространенному языку программирования на планете. От переменных до регулярных выражений, замыканий и функционального программирования.
Введение. О курсе. Числа.
› Описание курса, знакомство с числами в JavaScript.
Строки. Объекты. Прототипы.
› Строки и объекты. Прототипы объектов и цепочки свойств.
Функции и замыкания
› Самые важные части JavaScript: функции и замыкания (closures).
Наследование
› Наследование свойств и конструкторы в JavaScript.
Массивы
› Массивы и работа с массивами.
Регулярные выражения
› Знакомимся с мощным инструментом работы с текстом.
Заключение
› Сравнения переменных и объектов, var, eval и заключение.
Общее
Полное имя : D:\Загрузки\JavaScript\JavaScript, лекция 1- Введение. О Курсе. Числа.mp4
Формат : MPEG-4
Профиль формата : Base Media / Version 2
Идентификатор кодека : mp42
Размер файла : 98,5 Мбайт
Продолжительность : 35 м.
Режим общего битрейта : Переменный
Общий поток : 390 Кбит/сек
Дата кодирования : UTC 2013-12-12 13:55:08
Дата пометки : UTC 2013-12-12 13:55:08
gsst : 0
gstd : 2121048
gssd : B4E9AAD45MH1387979407039552
gshh : r2---sn-xuu-qv3e.googlevideo.com

Видео
Идентификатор : 1
Формат : AVC
Формат/Информация : Advanced Video Codec
Профиль формата :
Параметр CABAC формата : Да
Параметр ReFrames формата : 1 кадр
Идентификатор кодека : avc1
Идентификатор кодека/Информация : Advanced Video Coding
Продолжительность : 35 м.
Битрейт : 243 Кбит/сек
Максимальный битрейт : 3546 Кбит/сек
Ширина : 1152 пикселя
Высота : 720 пикселей
Соотношение сторон : 16:10
Режим частоты кадров : Постоянный
Частота кадров : 30,000 кадров/сек
Цветовое пространство : YUV
Субдискретизация насыщенности : 4:2:0
Битовая глубина : 8 бит
Тип развёртки : Прогрессивная
Бит/(Пиксели*Кадры) : 0.010
Размер потока : 61,4 Мбайт (62%)
Дата пометки : UTC 2013-12-12 13:55:25

Аудио
Идентификатор : 2
Формат : AAC
Формат/Информация : Advanced Audio Codec
Профиль формата : LC
Идентификатор кодека : 40
Продолжительность : 35 м.
Вид битрейта : Переменный
Битрейт : 144 Кбит/сек
Максимальный битрейт : 150 Кбит/сек
Каналы : 1 канал
Расположение каналов : Front: C
Частота : 44,1 КГц
Метод сжатия : С потерями
Размер потока : 36,4 Мбайт (37%)
Заголовок : IsoMedia File Produced by Google, 5-11-2011
Дата кодирования : UTC 2013-12-12 13:55:16
Дата пометки : UTC 2013-12-12 13:55:25
Скриншоты:


Время раздачи: с 10:00 до 20:00

Постеры

Соцсети

 

Статистика

Автор: Smartbot
Добавлен: 10 янв 2014, 01:01
Размер: 1.12 ГБ
Размер: 1 204 927 710 байт
Сидеров: 253
Личеров: 23
Скачали: 12
Здоровье: 100%
Раздающих: 100%
Скорость скачивания: 0 байт/сек
Скорость раздачи: 0 байт/сек
Последний сидер: 3 дня 6 часов 35 минут 21 секунду назад
Последний личер: 7 дней 7 часов 42 минуты 5 секунд назад
Приватный: Нет (DHT включён)
Скачать торрент
Скачать торрент
[ Размер 13.15 КБ / Просмотров 75 ]

Поделиться



  • Похожие торренты
    Ответы
    Просмотры
    Последнее сообщение

Вернуться в JavaScript