RusTuts.com | Сведение вокала с минусом (2013) [PCRec]

Видео уроки, книги, учебники по созданию музыки, работа с звуковыми редакторами
Торрент Сидеров Личеров Размер
torrent_138662.torrent
16 5 815.83 МБ
Smartbot

RusTuts.com | Сведение вокала с минусом (2013) [PCRec]

Сообщение Smartbot » 10 янв 2014, 01:17

RusTuts.com | Сведение вокала с минусом (2013) [PCRec]

Автор (режиссер): RusTuts.com
Жанр: Работа со звуком
Язык: Русский
Продолжительность: 01:04:00
Качество видео: PCRec
Видеокодек: AVC/H.264
Битрейт видео: ~405 Кбит/сек, 15,000 кадров/сек
Размер кадра: 1920x1080, 16:9
Аудиокодек: AAC
Битрейт аудио: ~130 Кбит/сек, 2 канала, 44,1 КГц

Описание: Практический курс «Сведение вокала с минусом» — это серия видео роликов, направленных на совершенствование техники сведение вокала. Любой звукорежиссер, независимо от уровня своих навыков, может использовать этот курс в повседневной работе. Улучшая свое мастерство сведения вокала, вы приобретаете мощное средство получения качественного звучания ваших миксов.

Сведение – это сложный процесс, где всё взаимосвязано. Каждый из 23-х роликов содержит в себе решение одной из задач обработки и посадке вокала в микс. Вместе они составляют целостный курс, в котором последовательно освещаются все аспекты сведения вокала с минусовкой.
0. Введение
1. Зачем мы сводим?
2. Сведение начинается еще до запуска DAW
3. Обзор обработок
4. Компенсируем потерю качества минусовки
5. Автоматизация уровня
6. Корректировочный эквалайзер
7. Дорогостоящее звучание вокала
8. Hi-End преамп в нашем DAW
9. Чудесный R-Vox
10. Улучшаем качество исполнения
11. Эквализация после компрессии
12. Выразительные и красивые согласные
13. Деессинг
14. Разбиваем исполнение на сегменты
15. Обзор эффектов
16. Ведущий вокал в стерео?
17. Реалистичные дабл-треки из одной дорожки
18. Реверберация
19. Дилей
20. Вокал не тонет в море реверберации
21. Автоматизация эффектов
22. Извечный вопрос: баланс вокала относительно музыки
23. Работаем со стерео шиной
Общее
Полное имя : E:\TORRENTS.RU\RusTuts.com - Сведение вокала с минусом\RusTuts.com - Сведение вокала с минусом\Video\01. Зачем мы сводим.mp4
Формат : MPEG-4
Профиль формата : Base Media
Идентификатор кодека : isom
Размер файла : 11,7 Мбайт
Продолжительность : 3 м. 2 с.
Режим общего битрейта : Переменный
Общий поток : 539 Кбит/сек
Программа кодирования : Lavf52.94.0

Видео
Идентификатор : 1
Формат : AVC
Формат/Информация : Advanced Video Codec
Профиль формата :
Параметр CABAC формата : Да
Параметр ReFrames формата : 2 кадра
Идентификатор кодека : avc1
Идентификатор кодека/Информация : Advanced Video Coding
Продолжительность : 3 м. 2 с.
Битрейт : 405 Кбит/сек
Номинальный битрейт : 3483 Кбит/сек
Ширина : 1920 пикселей
Высота : 1080 пикселей
Соотношение сторон : 16:9
Режим частоты кадров : Постоянный
Частота кадров : 15,000 кадров/сек
Цветовое пространство : YUV
Субдискретизация насыщенности : 4:2:0
Битовая глубина : 8 бит
Тип развёртки : Прогрессивная
Бит/(Пиксели*Кадры) : 0.013
Размер потока : 8,83 Мбайт (75%)
Библиотека кодирования : x264 core 112 r1834 a51816a
Настройки программы : cabac=1 / ref=2 / deblock=1:0:0 / analyse=0x3:0x113 / me=hex / subme=6 / psy=1 / psy_rd=1.00:0.00 / mixed_ref=0 / me_range=16 / chroma_me=1 / trellis=0 / 8x8dct=1 / cqm=0 / deadzone=21,11 / fast_pskip=1 / chroma_qp_offset=-2 / threads=4 / sliced_threads=0 / nr=0 / decimate=1 / interlaced=0 / constrained_intra=0 / bframes=3 / b_pyramid=0 / b_adapt=1 / b_bias=0 / direct=3 / weightb=1 / open_gop=0 / weightp=2 / keyint=250 / keyint_min=25 / scenecut=40 / intra_refresh=0 / rc_lookahead=40 / rc=2pass / mbtree=1 / bitrate=3483 / ratetol=1.0 / qcomp=0.60 / qpmin=10 / qpmax=51 / qpstep=4 / cplxblur=20.0 / qblur=0.5 / ip_ratio=1.41 / aq=1:1.00

Аудио
Идентификатор : 2
Формат : AAC
Формат/Информация : Advanced Audio Codec
Профиль формата : LC
Идентификатор кодека : 40
Продолжительность : 3 м. 2 с.
Вид битрейта : Переменный
Битрейт : 130 Кбит/сек
Каналы : 2 канала
Расположение каналов : Front: L R
Частота : 44,1 КГц
Метод сжатия : С потерями
Задержка видео : 67 мс.
Размер потока : 2,82 Мбайт (24%)
Скриншоты:


Время раздачи: С 10:00 до 24:00
У вас нет необходимых прав для просмотра вложений в этом сообщении.