Видео


Сообщение

Видео Как настроить Wi-Fi? [2013, Обучающее видео, HDTVRip]

Сообщение Smartbot » 12 янв 2014, 00:52

Как настроить Wi-Fi?
Перевод: Не требуется, cубтитры: отсутствуют
Формат: HDTVRip, MPEG, H.264, AAC
Страна: Россия
Жанр: Обучающее видео
Продолжительность: 00:27:32
Год выпуска: 2013
Описание: Наглядно и просто о том как правильно подключить и настроить Wi-Fi

Видео: 1280x720 (4:3), 30 fps, MPEG-4 Visual (H.263) ~2575 kbps avg, 0.175 bit/pixel
Аудио: 48 kHz, Advanced Audio Codec, 128.00 kbps avg

Доп. информация:
Общее
Полное имя : C:\Tfile\Обучающее\kak_nastroit_wi_fi_[tfile.ru]\KakNastroitWi-Fi.mp4
Формат : MPEG-4
Профиль формата : Base Media
Идентификатор кодека : isom
Размер файла : 533 Мбайт
Продолжительность : 27 м.
Общий поток : 2707 Кбит/сек
Название фильма : KakNastroitWi-Fi
Дорожка/Положение : 1
Дорожка/Всего : 0
Дата кодирования : 2013
Программа кодирования : Lavf54.29.105
Обложка : Yes

Видео
Идентификатор : 1
Формат : MPEG-4 Visual
Профиль формата : Simple@L1
Параметр BVOP формата : Нет
Параметр QPel формата : Нет
Параметр GMC формата : Без точки перехода
Параметр матрицы формата : Default (H.263)
Идентификатор кодека : 20
Продолжительность : 27 м.
Вид битрейта : Переменный
Битрейт : 2575 Кбит/сек
Максимальный битрейт : 4000 Кбит/сек
Ширина : 1280 пикс.
Высота : 720 пикс.
Соотношение сторон : 16:9
Режим частоты кадров : Постоянный
Частота кадров : 16,000 кадр/сек
Цветовое пространство : YUV
Подвыборка цветности : 4:2:0
Битовая глубина : 8 бит
Тип развёртки : Прогрессивная
Метод сжатия : С потерями
Бит/(Пиксели*Кадры) : 0.175
Размер потока : 507 Мбайт (95%)
Библиотека кодирования : Lavc54.63.100

Аудио
Идентификатор : 2
Формат : AAC
Формат/Информация : Advanced Audio Codec
Профиль формата : LC
Идентификатор кодека : 40
Продолжительность : 27 м.
Вид битрейта : Постоянный
Битрейт : 128 Кбит/сек
Канал(ы) : 2 канала(ов)
Расположение каналов : Front: L R
Частота : 48,0 КГц
Метод сжатия : С потерями
Размер потока : 25,2 Мбайт (5%)






Постеры

Соцсети

 

Статистика

Автор: Smartbot
Добавлен: 12 янв 2014, 00:52
Размер: 533.39 МБ
Размер: 559 299 734 байт
Сидеров: 53
Личеров: 9
Скачали: 133
Здоровье: 100%
Раздающих: 40%
Скорость скачивания: 0 байт/сек
Скорость раздачи: 0 байт/сек
Последний сидер: 1 месяц 15 дней 59 минут 50 секунд назад
Последний личер: 1 месяц 15 дней 59 минут 50 секунд назад
Приватный: Нет (DHT включён)
Сеть и безопасность Скачать торрент
Скачать торрент
[ Размер 11.09 КБ / Просмотров 22 ]

Поделиться



  • Похожие торренты
    Ответы
    Просмотры
    Последнее сообщение

Вернуться в Сеть и безопасность