Победить стресс! (Вадим Шлахтер) [2011, Видеоуроки, DVD5]

Торрент Сидеров Личеров Размер
torrent_138772.torrent
8 4 1.12 ГБ
Smartbot

Победить стресс! (Вадим Шлахтер) [2011, Видеоуроки, DVD5]

Сообщение Smartbot » 12 янв 2014, 01:01

Победить стресс!

Перевод: Не требуется, cубтитры: отсутствуют
Формат: DVD5, DVD Video, MPEG2, AC3
Страна: Россия
Режиссер: Вадим Шлахтер
Жанр: Видеоуроки
Продолжительность: 00:47:17
Год выпуска: 2011
В ролях: Вадимович Шлахтер
Описание: Автор данной программы и ведущий тренинга: Вадим Вадимович Шлахтер – известный бизнес-тренер, а также тренер личностного роста, бизнес-консультант. Один из лучших ведущих психологов-практиков Российской Федерации с профессиональным опытом более 16 лет.
Здесь представлены уроки Вадима Шлахтера по преодолению стресса.

Видео: 720х576 (PAL 4:3), 25 fps, MPEG-2, ~3121 kbps avg, 0.314 bit/pixel
Аудио: 48 kHz, AC-3 , 2 ch, 192.00 kbps avg

Доп. информация:
Содержание:
1. Стресс
2. Стресс-фактор
3. Психотравма
4. Мужской урок
5. Мужские болезни
6. Секретный урок

Общее
Формат : MPEG-PS
Общий поток : 3380 Кбит/сек

Видео
Идентификатор : 224 (0xE0)
Формат : MPEG Video
Версия формата : Version 2
Профиль формата : Main@Main
Параметр BVOP формата : Да
Параметр матрицы формата : По умолчанию
Параметры GOP формата : M=3, N=12
Вид битрейта : Переменный
Битрейт : 3121 Кбит/сек
Номинальный битрейт : 9008 Кбит/сек
Ширина : 720 пикс.
Высота : 576 пикс.
Соотношение сторон : 4:3
Частота кадров : 24,000 кадр/сек
Стандарт вещания : PAL
Цветовое пространство : YUV
Подвыборка цветности : 4:2:0
Битовая глубина : 8 бит
Тип развёртки : Прогрессивная
Порядок развёртки : 2:2:2:2:2:2:2:2:2:2:2:3 Pulldown
Метод сжатия : С потерями
Бит/(Пиксели*Кадры) : 0.314
Размер потока : 945 Мбайт (92%)

Аудио
Идентификатор : 128 (0x80)
Формат : AC-3
Формат/Информация : Audio Coding 3
Расширение режима : CM (complete main)
Вид битрейта : Постоянный
Битрейт : 192 Кбит/сек
Канал(ы) : 2 канала(ов)
Расположение каналов : Front: L R
Частота : 48,0 КГц
Битовая глубина : 16 бит
Метод сжатия : С потерями
Размер потока : 58,1 Мбайт (6%)




У вас нет необходимых прав для просмотра вложений в этом сообщении.