Аллен Карр - Легкий способ жить без тревог и волнений [2005, Обучающее видео, психология, HDTVRip]

Торрент Сидеров Личеров Размер
torrent_138806.torrent
84 20 1.31 ГБ
Smartbot

Аллен Карр - Легкий способ жить без тревог и волнений [2005, Обучающее видео, психология, HDTVRip]

Сообщение Smartbot » 12 янв 2014, 01:03

Аллен Карр - Легкий способ жить без тревог и волнений

Перевод: Не требуется, cубтитры: отсутствуют
Формат: HDTVRip, MP4, AVC, AAC
Страна: Россия
Жанр: Обучающее видео, психология
Год выпуска: 2005
Продолжительность: 01:22:47

Описание: Аллен Карр, автор бестселлера "Легкий способ бросить курить", успешно применял созданную им методику для решения различных психологических проблем - от избавления от алкогольной зависимости до снижения веса.
"Легкий способ жить без тревог и волнений" поможет читателям освободить сознание от стереотипов, навязанных нам обществом и массовой культурой, создать позитивный настрой, справляться со стрессами и преодолеть бесполезные тревоги и волнения. Вы научитесь управлять собой и своей жизнью, узнаете, как достичь душевного равновесия и найти выход из самой, казалось бы, безнадежной ситуации.


Видео: 1920x1080 (16:9), AVC, 25.000 fps, 2200 kbps avg, 0.042 bit.pixel
Аудио: 44.1 KHz, AAC, 2 ch, stereo, ~64,2 Kbps avg

Доп. информация:

Общее
Полное имя : C:\tfile\Жить без тревог\Аллен Карр - Легкий способ жить без тревог и волнений (part 1).mp4
Формат : MPEG-4
Профиль формата : Base Media
Идентификатор кодека : isom
Размер файла : 706 Мбайт
Продолжительность : 43 м.
Режим общего битрейта : Переменный
Общий поток : 2269 Кбит/сек

Видео
Идентификатор : 1
Формат : AVC
Формат/Информация : Advanced Video Codec
Профиль формата :
Параметр CABAC формата : Нет
Параметр ReFrames формата : 1 кадр
Идентификатор кодека : avc1
Идентификатор кодека/Информация : Advanced Video Coding
Продолжительность : 43 м.
Битрейт : 2200 Кбит/сек
Ширина : 1920 пикселей
Высота : 1080 пикселей
Соотношение сторон : 16:9
Режим частоты кадров : Постоянный
Частота кадров : 25,000 кадров/сек
Цветовое пространство : YUV
Субдискретизация насыщенности : 4:2:0
Битовая глубина : 8 бит
Тип развёртки : Прогрессивная
Бит/(Пиксели*Кадры) : 0.042
Размер потока : 685 Мбайт (97%)
Язык : English

Аудио
Идентификатор : 2
Формат : AAC
Формат/Информация : Advanced Audio Codec
Профиль формата : LC
Идентификатор кодека : 40
Продолжительность : 43 м.
Вид битрейта : Переменный
Битрейт : 64,2 Кбит/сек
Каналы : 2 канала
Расположение каналов : Front: L R
Частота : 48,0 КГц
Метод сжатия : С потерями
Размер потока : 20,0 Мбайт (3%)
Язык : English





У вас нет необходимых прав для просмотра вложений в этом сообщении.