Groove3 | Производство музыки в Pro Tools - Том 1: Поп (2009) [PCRec] [EN]

Видео уроки, книги, учебники по созданию музыки, работа с звуковыми редакторами
Торрент Сидеров Личеров Размер
torrent_139096.torrent
4 6 1.44 ГБ
Smartbot

Groove3 | Производство музыки в Pro Tools - Том 1: Поп (2009) [PCRec] [EN]

Сообщение Smartbot » 28 янв 2014, 22:07

Groove3 | Производство музыки в Pro Tools - Том 1: Поп (2009) [PCRec] [EN]

Автор (режиссер): Groove3
Оригинальное название: Music Production with Pro Tools - Vol 1: Pop
Жанр: Работа со звуком
Язык: Английский
Продолжительность: 04:36:27
Качество видео: PCRec
Видеокодек: AVC/H.264
Битрейт видео: 415 Kbps, 12.000 fps
Размер кадра: 1024x768, 4:3
Аудиокодек: AAC
Битрейт аудио: 229 Kbps, 2 channels, 44.1 KHz

Описание: Кенни Gioia - это мульти-платиновый продюсер и инженер, который работал с бесчисленным количеством исполнителей. В этой захватывающей новой серии, он показывает вам свой метод производства поп-музыки.
Kenny Gioia is a multi-platinum producer and engineer who has worked with countless name acts. In this exciting new series, he shows you his method for creating a professional, radio-ready Pop music production, out of nothing more than a rough guide vocal take.
See how it's all done, from programming drum parts, laying down keys, synths and guitars, live bass, real drums, comping the perfect vocal take and more. You'll discover many cool Pro Tools features and functions, as well as shortcuts and tricks that can be applied to any DAW.
This is truly a lesson from a master music producer, revealing the most common steps to achieving a professional Pop music production, as well as things you've never thought of. Take your production skills higher, get "Music Production with Pro Tools Vol 1: Pop" today.
01 The Working Demo
02 Song Setup
03 Getting in the Groove
04 Adding Percussion
05 Keys Please
06 Acoustic Guitars
07 Electric Guitars
08 Arrangement Tweaks
09 Give the Drummer Some
10 Extra Samples
11 More Keys Please
12 Printing VIs
13 Power Guitar
14 Guitar Special FX
15 Percussive Guitar
16 Live Bass
17 Octave Guitar
18 Track Grouping
19 Lead Vocals
20 Vocal Doubling
21 Harmonies
22 Bridge Vocals
23 Vocal Special FX
24 Reverse Vocal FX
25 Automating Vocals FX
26 One Last Thing
27 The End
General
Complete name : C:\Groove3 - Music Production with Pro Tools - Vol 1. Pop\01TheDemo.mp4
Format : MPEG-4
Format profile : Base Media / Version 2
Codec ID : mp42
File size : 16.7 MiB
Duration : 3mn 37s
Overall bit rate : 647 Kbps
Encoded date : UTC 2009-11-25 15:48:21
Tagged date : UTC 2009-11-25 15:48:21

Video
ID : 2
Format : AVC
Format/Info : Advanced Video Codec
Format profile :
Format settings, CABAC : No
Format settings, ReFrames : 2 frames
Codec ID : avc1
Codec ID/Info : Advanced Video Coding
Duration : 3mn 37s
Source duration : 3mn 37s
Bit rate : 415 Kbps
Width : 1 024 pixels
Height : 768 pixels
Display aspect ratio : 4:3
Frame rate mode : Constant
Frame rate : 12.000 fps
Color space : YUV
Chroma subsampling : 4:2:0
Bit depth : 8 bits
Scan type : Progressive
Bits/(Pixel*Frame) : 0.044
Stream size : 10.7 MiB (64%)
Source stream size : 10.7 MiB (64%)
Language : English
Encoded date : UTC 2009-11-25 15:48:06
Tagged date : UTC 2009-11-25 15:48:21
Color primaries : BT.709
Transfer characteristics : BT.709
Matrix coefficients : BT.709

Audio
ID : 1
Format : AAC
Format/Info : Advanced Audio Codec
Format profile : LC
Codec ID : 40
Duration : 3mn 37s
Source duration : 3mn 37s
Bit rate mode : Constant
Bit rate : 229 Kbps
Nominal bit rate : 256 Kbps
Channel(s) : 2 channels
Channel positions : Front: L R
Sampling rate : 44.1 KHz
Compression mode : Lossy
Delay relative to video : 83ms
Stream size : 5.92 MiB (35%)
Source stream size : 5.92 MiB (35%)
Language : English
Encoded date : UTC 2009-11-25 15:48:06
Tagged date : UTC 2009-11-25 15:48:21
Скриншоты:


Время раздачи: C 10:00 до 24:00
У вас нет необходимых прав для просмотра вложений в этом сообщении.