Groove3 | Сведение Рока (2011) [PCRec] [EN]

Видео уроки, книги, учебники по созданию музыки, работа с звуковыми редакторами
Торрент Сидеров Личеров Размер
torrent_139098.torrent
3 7 1.08 ГБ
Smartbot

Groove3 | Сведение Рока (2011) [PCRec] [EN]

Сообщение Smartbot » 28 янв 2014, 22:07

Groove3 | Сведение Рока (2011) [PCRec] [EN]

Автор (режиссер): Groove3
Оригинальное название: Mixing Rock
Жанр: Работа со звуком
Язык: Английский
Продолжительность: 06:44:12
Качество видео: PCRec
Видеокодек: AVC/H.264
Битрейт видео: ~275 Kbps, 14.985 fps
Размер кадра: 1024x768, 4:3
Аудиокодек: AAC
Битрейт аудио: ~141 Kbps, 2 channels, 44.1 KHz

Описание: Мультиплатиновый инженер и продюсер Kenny Gioia возвращается с невероятно детальной серией уроков по сведению рок музыки! Данный курс фактически позволят вам стоять и смотреть из-за плеча Kenny, как он берет мультитрек рок-песни и сводит ее с нуля. Если вам интересно как профессиональный звукорежиссер "колдует" в своей работе, то вы обязательно должны посмотреть эту серию видеоуроков.
Кенни начинает работу с полностью "сырых" треков и в процессе сведения раскрывает такие основы, как готовность треков к сведению, чистка и правка инструментов, использование VCA групп и шин, использование эффектов, мишкирование вокала, ударных и остальных инструментов, использования автоматизации и многое многое другое.
Представленная серия - редкий шанс увидеть работу профессионала на примере сведения рок песни от начала до конца.
Multi-Platinum Engineer and Producer Kenny Gioia is back with an incredible, in-depth series on mixing rock! This collection allows you to peak over Kenny's shoulder as he takes a multi-tracked rock production and mixes it from the ground up. If you want to see how a professional mixer works his magic, this series is a must see.
Kenny starts with the raw tracks and covers topics such as getting ready to mix, track preparation and correction, using VCA Groups or Busses, effects, mix bus compression, vocal and drum mixes, vocal harmonies and backgrounds, guitars, bass, automation, the final mix and so much more.
This is a rare chance to see how a professional, veteran music producer / engineer crafts a rock mix from beginning to end. What would you pay to sit in on a session and watch? Well, this is your ticket to the show.
01 Introduction
02 Markers
03 Track Naming
04 Color Coding
05 Track Clean Up
06 Re-Ordering Tracks
07 VCA Groups / Busses
08 FX Returns
09 Mix Bus Compression
10 Timing Fixes
11 Tuning Fixes
12 Basic Vocal Sound
13 Basic Drum Mix
14 Overheads & Hi-Hat
15 Room Mics
16 The Kick Drum
17 The Snare Drum
18 The Tom Sound
19 Parallel Compression
20 Snare / Tamb Overdub
21 Bass Guitar
22 Wurlitzer & Organ
23 Main Guitar
24 High Guitar
25 Chorus Guitar
26 Heavy Guitars
27 Tremolo Guitars
28 Riff & Octave Guitars
29 Pick & Chicka Guitars
30 The Piano
31 Mute Sections
32 The Lead Vocal
33 Vocal Harmonies
34 Octave Vocals
35 Background Vocals
36 Automation
37 The Final Mix
General
Complete name : E:\TORRENTS.RU\Groove 3 - Mixing Rock\Groove3 - Mixing Rock\g3mrt-01-IntroPlaySong.mp4
Format : MPEG-4
Format profile : Base Media / Version 2
Codec ID : mp42
File size : 30.7 MiB
Duration : 10mn 14s
Overall bit rate mode : Variable
Overall bit rate : 419 Kbps
Movie name : Introduction
Album/Performer : Kenny Gioia
Part/Position : 1
Part/Total : 1
Track name/Position : 1
Track name/Total : 37
Performer : Mixing Rock
Genre : Video Training
Encoded date : UTC 2011-01-27 05:03:50
Tagged date : UTC 2011-01-28 23:59:40
Copyright : 2010 Groove 3 Inc.
Cover : Yes
stik : 10
iTunMOVI : <?xml version="1.0" encoding="UTF-8"?> / <!DOCTYPE plist PUBLIC "-/Apple/DTD PLIST 1.0/EN" "http://www.apple.com/DTDs/PropertyList-1.0.dtd"> / <plist version="1.0"> / <dict> / <key>directors</key> / <array> / <dict> / <key>name</key> / <string>Kenny Gioia</string> / </dict> / </array> / <key>producers</key> / <array> / <dict> / <key>name</key> / <string>Groove 3 Inc.</string> / </dict> / </array> / </dict> / </plist>
tvsh : Mixing Rock
tvnn : www.groove3.com
desc : An introduction to the mixing tutorial. Also includes preparing files for a mixer, or what to request from your producers or tracking engineers using differing DAWs. Tempos and tempo changes are also addressed along with setting up main outputs and busses
ldes : An introduction to the mixing tutorial. Also includes preparing files for a mixer, or what to request from your producers or tracking engineers using differing DAWs. Tempos and tempo changes are also addressed along with setting up main outputs and busses for creating a quick rough mix. All tracks in the song are also briefly reviewed followed by the song being played in its entirety.
tves : 1

Video
ID : 1
Format : AVC
Format/Info : Advanced Video Codec
Format profile :
Format settings, CABAC : Yes
Format settings, ReFrames : 2 frames
Codec ID : avc1
Codec ID/Info : Advanced Video Coding
Duration : 10mn 14s
Duration_FirstFrame : 67ms
Bit rate mode : Variable
Bit rate : 275 Kbps
Width : 1 024 pixels
Height : 768 pixels
Display aspect ratio : 4:3
Frame rate mode : Constant
Frame rate : 14.985 fps
Color space : YUV
Chroma subsampling : 4:2:0
Bit depth : 8 bits
Scan type : Progressive
Bits/(Pixel*Frame) : 0.023
Stream size : 20.1 MiB (66%)
Writing library : x264 core 79
Encoding settings : cabac=1 / ref=2 / deblock=1:0:0 / analyse=0x1:0x111 / me=hex / subme=6 / psy=1 / psy_rd=1.0:0.0 / mixed_ref=0 / me_range=16 / chroma_me=1 / trellis=0 / 8x8dct=0 / cqm=0 / deadzone=21,11 / chroma_qp_offset=-2 / threads=6 / nr=0 / decimate=1 / mbaff=0 / constrained_intra=0 / bframes=2 / b_pyramid=0 / b_adapt=1 / b_bias=0 / direct=1 / wpredb=0 / wpredp=2 / keyint=150 / keyint_min=15 / scenecut=40 / rc_lookahead=40 / rc=crf / mbtree=1 / crf=20.0 / qcomp=0.60 / qpmin=10 / qpmax=51 / qpstep=4 / ip_ratio=1.40 / aq=1:1.00
Encoded date : UTC 2011-01-27 05:03:50
Tagged date : UTC 2011-01-27 05:05:47
Color primaries : BT.709
Transfer characteristics : BT.709
Matrix coefficients : BT.709

Audio
ID : 2
Format : AAC
Format/Info : Advanced Audio Codec
Format profile : LC
Codec ID : 40
Duration : 10mn 14s
Bit rate mode : Variable
Bit rate : 141 Kbps
Maximum bit rate : 245 Kbps
Channel(s) : 2 channels
Channel positions : Front: L R
Sampling rate : 44.1 KHz
Compression mode : Lossy
Delay relative to video : 134ms
Stream size : 10.3 MiB (34%)
Language : English
Encoded date : UTC 2011-01-27 05:03:50
Tagged date : UTC 2011-01-27 05:05:47
Скриншоты:


Время раздачи: C 10:00 до 24:00
У вас нет необходимых прав для просмотра вложений в этом сообщении.