Groove3 | Запись вокала. Разъяснения (2013) [PCRec] [EN]

Видео уроки, книги, учебники по созданию музыки, работа с звуковыми редакторами
Торрент Сидеров Личеров Размер
torrent_139100.torrent
7 5 183.15 МБ
Smartbot

Groove3 | Запись вокала. Разъяснения (2013) [PCRec] [EN]

Сообщение Smartbot » 28 янв 2014, 22:08

Groove3 | Запись вокала. Разъяснения (2013) [PCRec] [EN]

Автор (режиссер): Groove3
Оригинальное название: Recording Vocals Explained
Жанр: Работа со звуком
Язык: Английский
Продолжительность: 01:06:00
Качество видео: PCRec
Видеокодек: AVC/H.264
Битрейт видео: ~258 Kbps, 30.000 fps
Размер кадра: 1600x900, 16:9
Аудиокодек: AAC
Битрейт аудио: ~103 Kbps, 2 channels, 44.1 KHz

Описание: Хотите получить профессиональное звучание при записи вокала? Эта коллекция видео-уроков от мульти-платинового инженера и продюсера Кенни Джоя проведет вас через его процесс настройки и записи, редактирования, тюнинга, компрессии и сведения вокала. Посмотрите, как Кенни шаг за шагом покажет вам все, от выбора и размещения микрофона до различных способов сведения, чтобы получить по-настоящему профессиональный результат.
Want to get professional sounding results when recording vocals? This collection of video tutorials by multi-platinum engineer and producer Kenny Gioia takes you through his process for setting up and recording, editing, tuning, EQ'ing, compressing and mixing vocals. Watch as Kenny takes you step by step, from mic selection and placement, all the way through mixing, and get a truly professional result.
Kenny begins with with an in-depth look at the different types of mics he likes to use and their proper placement in conjunction with wind screens and pop filters. Next, he runs through the proper recording levels for a DAW, including mic preamp settings and the use of compressors to control dynamic range. Kenny then shows you the proper use of EQ and compression for recording both before the DAW and after. Moving on, Kenny shows his technique for adding reverb and delay to create space and inspire our vocalists in the recording process.
Recording takes is next up, and Kenny shows how he prefers to record takes to keep the session moving, and get the best possible performance from the singers. Kenny then focuses on comping together the keeper takes to create one finished master performance.
Editing vocals is then explored and you'll learn the pros and cons when using both Elastic Audio and Beat Detective Editing. After demonstrating the use of sidechain compression, Kenny shows a unique technique for recording background vocals in a way that makes it extremely convenient, fast and more focused for your singers.
De-essing and tuning the vocal are up next, and Kenny shows how manually de-essing the vocal manually can be both quick and beneficial. Kenny then uses Antares Auto-Tune 7 to get the vocals perfectly in tune and more polished as finished product. Finally, Kenny revisits all of the previous discussed effects, re-tweaks them along with adding a few extras. He then proceeds to ride and automate the lead vocal to fit perfectly into the mix.
If you record vocals or are just getting into recording, this series will give you a solid foundation and even some new tips and techniques... Watch "Recording Vocals Explained" today.
01. Mic Technique 03m:51s
02. Proper Recording Levels 05m:21s
03. The Vocal Sound 09m:28s
04. Monitor FX 03m:59s
05. Recording Takes 05m:18s
06. Comping Vocals 07m:08s
07. Recording Bk Vox 03m:51s
08. De-Essing 08m:37s
09. Tuning 08m:22s
10. Mixing the Vocal 10m:36s
General
Complete name : E:\TORRENTS.RU\Groove3 - Recording Vocals Explained\Groove3 - Recording Vocals Explained\01MicTechnique_HD.mp4
Format : MPEG-4
Format profile : Base Media / Version 2
Codec ID : mp42
File size : 10.1 MiB
Duration : 3mn 50s
Overall bit rate mode : Variable
Overall bit rate : 366 Kbps
Movie name : Mic Technique
Album/Performer : Kenny Gioia
Part/Position : 1
Part/Total : 1
Track name/Position : 1
Track name/Total : 10
Performer : Recording Vocals Explained
Genre : Video Training
Encoded date : UTC 2013-09-07 22:38:13
Tagged date : UTC 2013-09-07 23:25:27
Copyright : 2013 Groove 3 Inc.
Cover : Yes
desc : In this tutorial, we learn the proper mic placement for recording vocals. Using different mic types and wind screens and pop filters.
ldes : In this tutorial, we learn the proper mic placement for recording vocals. Using different mic types and wind screens and pop filters.
stik : 10
iTunMOVI : <?xml version="1.0" encoding="UTF-8"?> / <!DOCTYPE plist PUBLIC "-/Apple/DTD PLIST 1.0/EN" "http://www.apple.com/DTDs/PropertyList-1.0.dtd"> / <plist version="1.0"> / <dict> / <key>directors</key> / <array> / <dict> / <key>name</key> / <string>Kenny Gioia</string> / </dict> / </array> / <key>producers</key> / <array> / <dict> / <key>name</key> / <string>Groove 3 Inc.</string> / </dict> / </array> / </dict> / </plist>
tvsh : Recording Vocals Explained
tves : 1
tvnn : www.groove3.com

Video
ID : 1
Format : AVC
Format/Info : Advanced Video Codec
Format profile :
Format settings, CABAC : Yes
Format settings, ReFrames : 4 frames
Codec ID : avc1
Codec ID/Info : Advanced Video Coding
Duration : 3mn 50s
Bit rate mode : Variable
Bit rate : 258 Kbps
Width : 1 600 pixels
Height : 900 pixels
Display aspect ratio : 16:9
Frame rate mode : Constant
Frame rate : 30.000 fps
Color space : YUV
Chroma subsampling : 4:2:0
Bit depth : 8 bits
Scan type : Progressive
Bits/(Pixel*Frame) : 0.006
Stream size : 7.07 MiB (70%)
Writing library : x264 core 120
Encoding settings : cabac=1 / ref=2 / deblock=1:0:0 / analyse=0x1:0x111 / me=hex / subme=6 / psy=1 / psy_rd=1.00:0.00 / mixed_ref=0 / me_range=16 / chroma_me=1 / trellis=0 / 8x8dct=0 / cqm=0 / deadzone=21,11 / fast_pskip=1 / chroma_qp_offset=-2 / threads=12 / sliced_threads=0 / nr=0 / decimate=1 / interlaced=0 / bluray_compat=0 / constrained_intra=0 / bframes=2 / b_pyramid=2 / b_adapt=1 / b_bias=0 / direct=1 / weightb=0 / open_gop=0 / weightp=2 / keyint=300 / keyint_min=30 / scenecut=40 / intra_refresh=0 / rc_lookahead=40 / rc=2pass / mbtree=1 / bitrate=258 / ratetol=1.0 / qcomp=0.60 / qpmin=3 / qpmax=69 / qpstep=4 / cplxblur=20.0 / qblur=0.5 / ip_ratio=1.40 / aq=1:1.00
Encoded date : UTC 2013-09-07 22:38:13
Tagged date : UTC 2013-09-07 22:39:05
Color primaries : BT.709
Transfer characteristics : BT.709
Matrix coefficients : BT.709

Audio
ID : 2
Format : AAC
Format/Info : Advanced Audio Codec
Format profile : LC
Codec ID : 40
Duration : 3mn 50s
Bit rate mode : Variable
Bit rate : 103 Kbps
Maximum bit rate : 155 Kbps
Channel(s) : 2 channels
Channel positions : Front: L R
Sampling rate : 44.1 KHz
Compression mode : Lossy
Delay relative to video : 67ms
Stream size : 2.82 MiB (28%)
Language : English
Encoded date : UTC 2013-09-07 22:38:13
Tagged date : UTC 2013-09-07 22:39:05
Скриншоты:


Время раздачи: C 10:00 до 24:00
У вас нет необходимых прав для просмотра вложений в этом сообщении.