Wikisound.org | Эквализация (2013) [PCRec]

Видео уроки, книги, учебники по созданию музыки, работа с звуковыми редакторами
Торрент Сидеров Личеров Размер
torrent_139118.torrent
7 3 4.04 ГБ
Smartbot

Wikisound.org | Эквализация (2013) [PCRec]

Сообщение Smartbot » 28 янв 2014, 22:11

Wikisound.org | Эквализация (2013) [PCRec]

Автор (режиссер): Wikisound.org
Жанр: Работа со звуком
Язык: Русский
Продолжительность: 03:28:03
Качество видео: PCRec
Видеокодек: AVC/H.264
Битрейт видео: ~3 655 Kbps, 25.000 fps
Размер кадра: 1280x720, 16:9
Аудиокодек: AAC
Битрейт аудио: ~318 Kbps, 2 channels, 44.1 KHz

Описание: Сергей Live представляет один из лучших курсов по эквализации. Все просто, доступно и понятно. 14 уроков и больше 3-х часов видео.
01 Что такое эквалайзер и виды эквалайзеров
02 Зачем нужна эквализация
03 Сведение бочки и баса
04 Сведение среднечастотных инструментов
05 Эквализация высокочастотных инструментов
06 Мид/сайд эквализация
07 Резонансы и динамическая эквализация
08 Смотрим на профессионалов
09 Правильное количество высоких частот
10 Сложности в обучении эквализации
11 Шум как идеальный микс
12 Эквалайзер "портит" звук
13 Советы по эквализации
14 Очень важные частоты
General
Complete name : H:\Фильмы\Wikisound.org - Эквализация\01 Что такое эквалайзер и виды эквалайзеров.mp4
Format : MPEG-4
Format profile : Base Media / Version 2
Codec ID : mp42
File size : 331 MiB
Duration : 11mn 38s
Overall bit rate : 3 978 Kbps
Encoded date : UTC 2013-05-05 15:14:11
Tagged date : UTC 2013-05-05 15:14:15
©TIM : 00:00:00:00
©TSC : 25
©TSZ : 1

Video
ID : 1
Format : AVC
Format/Info : Advanced Video Codec
Format profile :
Format settings, CABAC : Yes
Format settings, ReFrames : 3 frames
Codec ID : avc1
Codec ID/Info : Advanced Video Coding
Duration : 11mn 38s
Bit rate mode : Variable
Bit rate : 3 655 Kbps
Width : 1 280 pixels
Height : 720 pixels
Display aspect ratio : 16:9
Frame rate mode : Constant
Frame rate : 25.000 fps
Standard : NTSC
Color space : YUV
Chroma subsampling : 4:2:0
Bit depth : 8 bits
Scan type : Progressive
Bits/(Pixel*Frame) : 0.159
Stream size : 304 MiB (92%)
Language : English
Encoded date : UTC 2013-05-05 15:14:11
Tagged date : UTC 2013-05-05 15:14:11

Audio
ID : 2
Format : AAC
Format/Info : Advanced Audio Codec
Format version : Version 4
Format profile : LC
Format settings, SBR : No
Codec ID : 40
Duration : 11mn 38s
Bit rate mode : Variable
Bit rate : 318 Kbps
Maximum bit rate : 360 Kbps
Channel(s) : 2 channels
Channel positions : Front: L R
Sampling rate : 44.1 KHz
Stream size : 26.4 MiB (8%)
Language : English
Encoded date : UTC 2013-05-05 15:14:11
Tagged date : UTC 2013-05-05 15:14:11
Скриншоты:


Время раздачи: C 10:00 до 24:00
У вас нет необходимых прав для просмотра вложений в этом сообщении.

Аватара пользователя
reprime
Сообщения: 16
Зарегистрирован: 02 окт 2014, 15:26

Re: Wikisound.org | Эквализация (2013) [PCRec]

Сообщение reprime » 02 окт 2014, 19:22

Спасибо!