Matthew Weiss | Сведение Хип-Хопа (2013) [PCRec] [EN]

Видео уроки, книги, учебники по созданию музыки, работа с звуковыми редакторами
Торрент Сидеров Личеров Размер
torrent_139122.torrent
3 5 6.12 ГБ
Smartbot

Matthew Weiss | Сведение Хип-Хопа (2013) [PCRec] [EN]

Сообщение Smartbot » 28 янв 2014, 22:12

Matthew Weiss | Сведение Хип-Хопа (2013) [PCRec] [EN]

Автор (режиссер): Matthew Weiss
Оригинальное название: Mixing Hip-Hop
Жанр: Работа со звуком
Язык: Английский
Продолжительность: 02:50:50
Качество видео: PCRec
Видеокодек: AVC/H.264
Битрейт видео: ~4 043 Kbps, 30.000 fps
Размер кадра: 1920x1080, 16:9
Аудиокодек: AAC
Битрейт аудио: ~303 Kbps, 2 channels, 44.1 KHz

Описание: Поднимите свои навыки сведения вокала и хип-хоп битов на новый уровень. Уровни, эквализация, компрессия. Микс-инженер Matthew Weiss покажет вам как получить лучший звук в вашем производстве хип-хопа.
Take your rap vocal mixing and hip-hop beats to the next level. Levels, equalization, compression and everything in between, mix engineer Matthew Weiss shows you how to get the absolute best sound out of your hip-hop productions.

You'll learn how to:

Can't afford a professional studio? Need to turn a closet-recorded vocal into ear candy? We'll show you how to get the best results out of any situation.
Does your vocal sound flat, buried or distant? Learn how to evaluate, level and process vocals with EQ, compression and time-based effects so your vocals always cut through the mix.
Not sure which frequencies to boost or cut? Learn to eliminate buildup, remove noise, and identify the most valuable harmonic content to enhance with equalization.
Does compression and limiting confuse you? We'll walk you through the various compression settings and show you techniques particularly effective for hip-hop mixing.
Static mixes are boring. We'll show you how to utilize various automation techniques to exaggerate emotional moments in your song.
Reverbs, delays and more — we'll walk you through constructing complex ambiences using time-based effects which you can directly apply to your music.
Mixing Hip-Hop Beats
Introduction
Part 1 — Levels 1 - Everything In It's Right Place
Part 2 — Levels 2 - Automation
Part 3 — Levels 3 - Conclusion
Part 4 — Mixing Low End
Part 5 — Snares
Part 6 — Strings and Horns
Part 7 — Peripheral Elements
Part 8 — Mastering

Mixing Rap Vocals
Introduction
Part 1 — Clean Up
Part 2 — Compression
Part 3 — Enhancement
Part 4 — Ambience
Bonus — Vocal Cleanup Training Exercise
Bonus — Interview with Vocal Producer Laura Zahn
Complete Treatment
General
Complete name : H:\Фильмы\Matthew Weiss - Mixing Hip-Hop\Mixing Hip-Hop Beats\Introduction.mp4
Format : MPEG-4
Format profile : Base Media / Version 2
Codec ID : mp42
File size : 81.1 MiB
Duration : 2mn 36s
Overall bit rate : 4 350 Kbps
Encoded date : UTC 2013-10-20 23:36:03
Tagged date : UTC 2013-10-20 23:45:43

Video
ID : 1
Format : AVC
Format/Info : Advanced Video Codec
Format profile :
Format settings, CABAC : Yes
Format settings, ReFrames : 5 frames
Codec ID : avc1
Codec ID/Info : Advanced Video Coding
Duration : 2mn 36s
Bit rate mode : Variable
Bit rate : 4 043 Kbps
Width : 1 920 pixels
Height : 1 080 pixels
Display aspect ratio : 16:9
Frame rate mode : Constant
Frame rate : 30.000 fps
Color space : YUV
Chroma subsampling : 4:2:0
Bit depth : 8 bits
Scan type : Progressive
Bits/(Pixel*Frame) : 0.065
Stream size : 75.3 MiB (93%)
Encoded date : UTC 2013-10-20 23:36:03
Tagged date : UTC 2013-10-20 23:45:43

Audio
ID : 2
Format : AAC
Format/Info : Advanced Audio Codec
Format version : Version 4
Format profile : LC
Format settings, SBR : No
Codec ID : 40
Duration : 2mn 36s
Bit rate mode : Variable
Bit rate : 303 Kbps
Maximum bit rate : 393 Kbps
Channel(s) : 2 channels
Channel positions : Front: L R
Sampling rate : 44.1 KHz
Stream size : 5.65 MiB (7%)
Encoded date : UTC 2013-10-20 23:36:03
Tagged date : UTC 2013-10-20 23:36:33
Скриншоты:


Время раздачи: C 10:00 до 24:00
У вас нет необходимых прав для просмотра вложений в этом сообщении.