Berklee College of Music | Введение в производство музыки (2013) [PCRec] [EN]

Видео уроки, книги, учебники по созданию музыки, работа с звуковыми редакторами
Торрент Сидеров Личеров Размер
torrent_139124.torrent
3 5 1.19 ГБ
Smartbot

Berklee College of Music | Введение в производство музыки (2013) [PCRec] [EN]

Сообщение Smartbot » 28 янв 2014, 22:12

Berklee College of Music | Введение в производство музыки (2013) [PCRec] [EN]

Автор (режиссер): Berklee College of Music
Оригинальное название: Introduction to Music Production
Жанр: Работа со звуком
Язык: Английский
Продолжительность: 07:58:49
Качество видео: PCRec
Видеокодек: AVC/H.264
Битрейт видео: ~316 Kbps, 29.970 fps
Размер кадра: 960x540, 16:9
Аудиокодек: AAC
Битрейт аудио: ~123 Kbps, 2 channels, 44.1 KHz

Описание: Производство музыки требует знаний, целеустремленности, креативности. Неважно, какую музыку вы делаете, существует большой набор инструментов, которые вы должны будете использовать. Каждое занятие этого курса будет демонстрировать разный набор музыкальных средств производства для процесса записи музыки, редактирования и сведения.
With the recent introduction of high-quality-low-cost software and hardware, the tools of music production are now available to the masses. Albums are made in bedrooms as well as studios. On the surface this is liberating. Anyone can make an album for the low cost of a couple pieces of gear and a software package. But, if you dig deeper, you will find that it is not so easy. Producing music requires knowledge, dedication, and creativity.
Knowledge is where this course comes in. No matter what kind of music you are making, there is a large set of tools that you will need to use. Each lesson of this course will demonstrate a different set of music production tools, loosely following along the music production process of recording, editing, and mixing.
We will start with some background on the nature of sound and how we perceive it. We will then examine the components necessary to record audio into a computer, so that you understand the devices that sound must travel through in a music production process.
Once recorded, sound must be organized along a timeline, a process known as editing. It allows us to give the impression of perfect performances and create many of the sounds we hear in contemporary music. The contemporary editing tool is the Digital Audio Workstation (DAW), a piece of software that stores and organizes all the assets of a musical project. We will focus on the editing tools that are essential in contemporary music production and that all DAWs provide.
After editing, sounds must be combined or mixed together, so we look to the mixing board—a very creative place if you know how to use it. We will explore the basic functionality of both hardware and software mixing boards, including volume, pan, mute, solo, busses, inserts, sends, and submixes. The mixing process, however, includes more tools than the mixing board provides on its own. Sound must also be processed, modified from its recorded state to fit the context of the music. We will look at compression, equalization, and delay, and examine the many audio effects that are offshoots of these devices and how they are used in a musical context.
We will then explore the synthesizer, a major tool within the production of contemporary music. Yes, great music can and will be created without the synthesizer, but learning how a synthesizer works will give you a language to describe sound. Music is a collaborative art form, so there is nothing more powerful than effective communication.
In the end, the music production process relies on your creativity. Creativity is a product of the mind and will stay there, unexpressed, until the right tools are used in the right way to share it with the world. If you have an idea in your head, it will take numerous steps, each with an important tool, to reach your audience. You bring the dedication and creativity, and this course will bring you the knowledge to make that happen.
Lesson 1: Recording Signal Flow
Sound, Microphones, Cables, Microphone Preamp, A to D Converter, DAW, DSP, D to A converter, Amplifier, Speakers (path of speaker is same as waveshape in DAW)

Lesson 2: DAW (Editing)
Multitrack Concept, Audio vs. MIDI, Regions and Sound Files, File Management, Grid, Trim, Cut, Paste, Crossfade, Automate, Software Instruments, MIDI Editing, Bounce

Lesson 3: Mixer (Summing)
Adding Waveforms, Mute and Solo, Stereo and Mono, Panning, Busses, Submix, Insert, Categories of Effects, Sends, Pre/Post Sends, Aux Tracks/Returns

Lesson 4: Dynamics Processing
Dynamic Range, Distortion and Noise, Volume Automation, Envelope (RMS), Dynamic Processors, Attack and Release, Conceptual Downward Expander and Gate, Conceptual Compressor and Limiter, Practical Gate, Practical Compressor

Lesson 5: Delay and Filters
Conceptual Delay, Delay Spectrum, Filters, Equalization, Short Delay (Comb Filter), Short Modulated Delay (Flanger), Long Delay (Synchronized), Reverb, Depth in Mixing

Lesson 6: Synthesizer
Synthesizer and Sampler, Synthesizer Overview, Oscillator, Filter, Amplifier, Modulation, Envelope, LFO, A Language of Timbre
General
Complete name : H:\Фильмы\Berklee College of Music - Introduction to Music Production\Lesson 1 _ Sound and Signal Flow\1 - 1 - Lesson Overview (2-04).mp4
Format : MPEG-4
Format profile : Base Media
Codec ID : isom
File size : 6.60 MiB
Duration : 2mn 4s
Overall bit rate : 446 Kbps
Writing application : Lavf53.29.100

Video
ID : 1
Format : AVC
Format/Info : Advanced Video Codec
Format profile :
Format settings, CABAC : Yes
Format settings, ReFrames : 4 frames
Codec ID : avc1
Codec ID/Info : Advanced Video Coding
Duration : 2mn 4s
Bit rate mode : Variable
Bit rate : 316 Kbps
Width : 960 pixels
Height : 540 pixels
Display aspect ratio : 16:9
Frame rate mode : Constant
Frame rate : 29.970 fps
Color space : YUV
Chroma subsampling : 4:2:0
Bit depth : 8 bits
Scan type : Progressive
Bits/(Pixel*Frame) : 0.020
Stream size : 4.67 MiB (71%)
Writing library : x264 core 120 r2120 0c7dab9
Encoding settings : cabac=1 / ref=3 / deblock=1:0:0 / analyse=0x3:0x113 / me=hex / subme=7 / psy=1 / psy_rd=1.00:0.00 / mixed_ref=1 / me_range=16 / chroma_me=1 / trellis=1 / 8x8dct=1 / cqm=0 / deadzone=21,11 / fast_pskip=1 / chroma_qp_offset=-2 / threads=12 / sliced_threads=0 / nr=0 / decimate=1 / interlaced=0 / bluray_compat=0 / constrained_intra=0 / bframes=3 / b_pyramid=2 / b_adapt=1 / b_bias=0 / direct=1 / weightb=1 / open_gop=0 / weightp=2 / keyint=250 / keyint_min=25 / scenecut=40 / intra_refresh=0 / rc_lookahead=40 / rc=crf / mbtree=1 / crf=28.0 / qcomp=0.60 / qpmin=0 / qpmax=69 / qpstep=4 / ip_ratio=1.40 / aq=1:1.00

Audio
ID : 2
Format : AAC
Format/Info : Advanced Audio Codec
Format version : Version 4
Format profile : LC
Format settings, SBR : No
Codec ID : 40
Duration : 2mn 4s
Bit rate mode : Variable
Bit rate : 123 Kbps
Maximum bit rate : 128 Kbps
Channel(s) : 2 channels
Channel positions : Front: L R
Sampling rate : 44.1 KHz
Stream size : 1.82 MiB (28%)
Скриншоты:


Время раздачи: C 10:00 до 24:00
У вас нет необходимых прав для просмотра вложений в этом сообщении.