Groove3 | Запись и сведение. Мастер-класс 1 (2013) [PCRec] [EN]

Видео уроки, книги, учебники по созданию музыки, работа с звуковыми редакторами
Торрент Сидеров Личеров Размер
torrent_139126.torrent
5 5 568.13 МБ
Smartbot

Groove3 | Запись и сведение. Мастер-класс 1 (2013) [PCRec] [EN]

Сообщение Smartbot » 28 янв 2014, 22:12

Groove3 | Запись и сведение. Мастер-класс 1 (2013) [PCRec] [EN]

Автор (режиссер): Groove3
Оригинальное название: Tracking and Mixing. Master Series 1
Жанр: Работа со звуком
Язык: Английский
Продолжительность: 01:40:50
Качество видео: PCRec
Видеокодек: AVC/H.264
Битрейт видео: ~1 032 Kbps, 29.970 fps
Размер кадра: 1280x720, 16:9
Аудиокодек: AAC
Битрейт аудио: ~127 Kbps, 2 channels, 4.1 KHz

Описание: Звездный продюсер Tony Shepperd работал с такими суперзвездами как: Whitney Houston, Madonna, Quincy Jones, Diana Ross, Lionel Richie, Kenny Loggins, Boyz II Men и многими, многими другими. В своем первом видео Тони рассказывает в теории и показывает на практике как записать рок-группу и свести трек.
Producer of the stars Tony Shepperd has worked with Whitney Houston, Madonna, Quincy Jones, Diana Ross, Lionel Richie, Kenny Loggins, Boyz II Men and many, many more. In his first series, Tony reveals his personal theories and practices for recording a rock band and mixing the track... Get on board!.
Tony Shepperd starts your time together with an introduction, followed by "The Journey of Sound", where Tony discusses the important fundamentals of sound. Next, setting up to record drums and tracking the trio is shown. How to record vocals is then demonstrated, as well as setting up keyboards and MIDI. The "3 Dimensions of a Mix" are discussed, and Tony then begins to deconstruct the mix he created of the rock band.
Tony breaks down the mix starting with the kick drum, snare, hats, toms, overheads, drum bus and room mic. Then the bass and guitars are scrutinized, followed by the vocals and applying different automation ideas to the tracks. Tony finishes up the series showing how preparing the 2 track master, use session templates for speed and enhanced management, stream the mix for artist approval and making mastering notes!
This series is perfect for those just getting into recording and producing and offers solid advice and techniques. It's also perfect for getting another opinion on the basics to complement your existing recording and production knowledge. Spend some time with Tony and watch "Tracking & Mixing Master Series I" today, you'll be glad you did!
01 Introduction 01m:52s
02 The Journey of Sound 03m:19s
03 Setting Up to Record Drums 14m:02s
04 Tracking the Trio 02m:22s
05 Recording Vocals 55s
06 Keyboards & MIDI 04m:20s
07 3 Dimensions of a Mix 01m:01s
08 Deconstructing the Mix 03m:11s
09 Kick 02m:27s
10 Snare 07m:41s
11 Hats 02m:11s
12 Toms 02m:11s
13 Overheads 01m:05s
14 Drum Bus 02m:17s
15 Room Mics 03m:02s
16 Bass 03m:57s
17 Mixing Guitar 10m:44s
18 Acoustic Guitar 02m:47s
19 Lead Vocal 05m:44s
20 Vocal Automation 02m:42s
21 Mix Automation 03m:44s
22 More Vocal Automation 05m:52s
23 Background Vocals 05m:31s
24 2 Track Master 02m:23s
25 Using Templates & More 02m:03s
26 Artist Feedback 02m:19s
27 Mastering Notes 01m:09s
General
Complete name : H:\Фильмы\Groove3 - Tracking and Mastering Series 1\01Introduction.mp4
Format : MPEG-4
Format profile : Base Media / Version 2
Codec ID : mp42
File size : 15.7 MiB
Duration : 1mn 52s
Overall bit rate : 1 171 Kbps
Movie name : Introduction
Part/Position : 1
Part/Total : 1
Track name/Position : 1
Track name/Total : 27
Performer : Tony Shepperd
Genre : Video Training
Encoded date : UTC 2013-12-22 00:36:19
Tagged date : UTC 2013-12-22 01:13:16
Copyright : Groove 3 Inc.
Cover : Yes
iTunMOVI : <?xml version="1.0" encoding="UTF-8"?> / <!DOCTYPE plist PUBLIC "-/Apple/DTD PLIST 1.0/EN" "http://www.apple.com/DTDs/PropertyList-1.0.dtd"> / <plist version="1.0"> / <dict> / <key>directors</key> / <array> / <dict> / <key>name</key> / <string>Tony Shepperd</string> / </dict> / </array> / <key>producers</key> / <array> / <dict> / <key>name</key> / <string>Groove 3 Inc.</string> / </dict> / </array> / </dict> / </plist>
tvsh : Tony Shepperd's Master Series 1 Tracking & Mixing
tvnn : www.groove3.com
tvsn : 0
tves : 1
desc : Tony welcomes you to the series and explains what to expect in the following videos.
ldes : Tony welcomes you to the series and explains what to expect in the following videos.
hdvd : 0
stik : 10
cnID : 0

Video
ID : 1
Format : AVC
Format/Info : Advanced Video Codec
Format profile :
Format settings, CABAC : Yes
Format settings, ReFrames : 4 frames
Format settings, GOP : M=3, N=32
Codec ID : avc1
Codec ID/Info : Advanced Video Coding
Duration : 1mn 52s
Bit rate mode : Variable
Bit rate : 1 032 Kbps
Width : 1 280 pixels
Height : 720 pixels
Display aspect ratio : 16:9
Frame rate mode : Constant
Frame rate : 29.970 fps
Color space : YUV
Chroma subsampling : 4:2:0
Bit depth : 8 bits
Scan type : Progressive
Bits/(Pixel*Frame) : 0.037
Stream size : 13.9 MiB (88%)
Writing library : x264 core 120
Encoding settings : cabac=1 / ref=2 / deblock=1:0:0 / analyse=0x1:0x111 / me=hex / subme=6 / psy=1 / psy_rd=1.00:0.00 / mixed_ref=0 / me_range=16 / chroma_me=1 / trellis=0 / 8x8dct=0 / cqm=0 / deadzone=21,11 / fast_pskip=1 / chroma_qp_offset=-2 / threads=12 / sliced_threads=0 / nr=0 / decimate=1 / interlaced=0 / bluray_compat=0 / constrained_intra=0 / bframes=2 / b_pyramid=2 / b_adapt=1 / b_bias=0 / direct=1 / weightb=0 / open_gop=0 / weightp=2 / keyint=300 / keyint_min=30 / scenecut=40 / intra_refresh=0 / rc_lookahead=40 / rc=2pass / mbtree=1 / bitrate=1032 / ratetol=1.0 / qcomp=0.60 / qpmin=3 / qpmax=69 / qpstep=4 / cplxblur=20.0 / qblur=0.5 / ip_ratio=1.40 / aq=1:1.00
Encoded date : UTC 2013-12-22 00:36:19
Tagged date : UTC 2013-12-22 00:36:53
Color primaries : BT.709-5, BT.1361, IEC 61966-2-4, SMPTE RP177
Transfer characteristics : BT.709-5, BT.1361
Matrix coefficients : BT.709-5, BT.1361, IEC 61966-2-4 709, SMPTE RP177

Audio
ID : 2
Format : AAC
Format/Info : Advanced Audio Codec
Format version : Version 4
Format profile : LC
Format settings, SBR : No
Codec ID : 40
Duration : 1mn 52s
Bit rate mode : Variable
Bit rate : 127 Kbps
Maximum bit rate : 293 Kbps
Channel(s) : 2 channels
Channel positions : Front: L R
Sampling rate : 44.1 KHz
Stream size : 1.71 MiB (11%)
Language : English
Encoded date : UTC 2013-12-22 00:36:19
Tagged date : UTC 2013-12-22 00:36:52

Text
ID : 3
Format : Apple text
Codec ID : text
Duration : 1mn 52s
Bit rate : 2 bps
Stream size : 23.0 Bytes (0%)
Encoded date : UTC 2013-12-22 01:13:16
Tagged date : UTC 2013-12-22 01:13:16
Скриншоты:


Время раздачи: C 10:00 до 24:00
У вас нет необходимых прав для просмотра вложений в этом сообщении.