Groove3 | R&B Мастер-класс 2 (2013) [PCRec] [EN]

Видео уроки, книги, учебники по созданию музыки, работа с звуковыми редакторами
Торрент Сидеров Личеров Размер
torrent_139128.torrent
3 7 888.64 МБ
Smartbot

Groove3 | R&B Мастер-класс 2 (2013) [PCRec] [EN]

Сообщение Smartbot » 28 янв 2014, 22:12

Groove3 | R&B Мастер-класс 2 (2013) [PCRec] [EN]

Автор (режиссер): Groove3
Оригинальное название: R&B Master Series 2
Жанр: Работа со звуком
Язык: Английский
Продолжительность: 03:42:00
Качество видео: PCRec
Видеокодек: AVC/H.264
Битрейт видео: ~645 Kbps, ~23.976 fps
Размер кадра: 1280x720, 16:9
Аудиокодек: AAC
Битрейт аудио: ~122 Kbps, 2 channels, 44.1 KHz

Описание: Мега-продюсер Tony Shepperd работал с такими суперзвездами как: Whitney Houston, Madonna, Quincy Jones, Diana Ross, Lionel Richie, Kenny Loggins, Boyz II Men и многими, многими другими. Поприсутствуйте на реальной сессии, во время которой Тони записывает вокал, а затем сводит современную песню в стиле R&B, доводя ее до совершенства.
Mega producer Tony Shepperd has worked with superstars like Whitney Houston, Madonna, Quincy Jones, Diana Ross, Lionel Richie, Kenny Loggins, Boyz II Men and many, many more. Sit in on a real-world session where Tony tracks vocals and then mixes a modern R&B song to perfection.
Shown in HD video, Tony Shepperd begins by recording the talented singer Shelea Frazier, producing both her lead and background vocals, and then roadmaps how he will proceed to finish her R&B masterpiece production. Tony then focuses on the drum tracks, utilizing EQ and compression, mixing them so they're fat and punchy. The bass is up next, and Tony explains how to tame it and fit it just right into the mix.
Mixing the vocals are next on Tony's list and he demonstrates how to blend them with EQ, compression and reverb so they have that professional polished vibe. Acoustic guitars and keyboards are then explored and Tony explains how to give them that wide stereo sound. The background vocals are then examined and Tony shows how to better fit them and the lead into the mix utilizing automation and more. The strings are then worked on, and Tony demonstrates how to make them larger than life, and finishes the whole mix.
Just when you thought it was over, Tony interviews all the different musicians who played on the track including Alex Teamer (Drum Programming), Reggie Hamilton (Bass), Randy Emata (Keyboards), Michael Nielsen (Guitar) and Raul Ferrando (String Arrangement). All the players share their techniques, theories and insights when working on the track featured in this series.
Regardless of what genre you're working on, the knowledge passed on by studio great Tony Shepperd deserves to be heard. You will take things from it and use them on your productions guaranteed... Watch "R&B Master Series II" today.
Tracking and Mixing
00 Intro
01 Artist Introductiction And Hardware Setup
02 Tracking Background Vocals
03 Vocal Outro Harmonies And Lead Vocals
04 Vox Wrap Up
05 Soundchain and Drums Pt. 1
06 The Drums Pt. 2
07 The Drums Pt. 3
08 Tympani and Bass Guitar
09 The Lead Vocal
10 Lead Vocal Pt. 2 and Acuustic Guitar
11 Acoustic Guitars Pt. 2, Keyboards and Pads
12 The Background Vocals
13 Vocal Automation
14 Strings and Summary

Insights
15 Alex Teamer - Drum Programming
16 Reggie Hamilton - Bass
17 Randy Emata - Keyboards
18 Michael Nielson - Acoustic Guitar
19 Raul Ferrando - String Orchestration
20 Credits
General
Complete name : H:\Фильмы\Groove3 - R&B Master Series 2\00Intro_HD.mp4
Format : MPEG-4
Format profile : Base Media / Version 2
Codec ID : mp42
File size : 6.90 MiB
Duration : 1mn 13s
Overall bit rate : 785 Kbps
Movie name : Intro
Part/Position : 1
Part/Total : 1
Track name/Position : 0
Track name/Total : 20
Performer : Tony Shepperd's R&B Master Series II
Genre : Video Training
Encoded date : UTC 2013-10-08 15:51:16
Tagged date : UTC 2013-10-08 23:13:06
Copyright : 2013 Groove 3 Inc.
iTunMOVI : <?xml version="1.0" encoding="UTF-8"?> / <!DOCTYPE plist PUBLIC "-/Apple/DTD PLIST 1.0/EN" "http://www.apple.com/DTDs/PropertyList-1.0.dtd"> / <plist version="1.0"> / <dict> / <key>directors</key> / <array> / <dict> / <key>name</key> / <string>Tony Shepperd</string> / </dict> / </array> / <key>producers</key> / <array> / <dict> / <key>name</key> / <string>Groove 3 Inc.</string> / </dict> / </array> / </dict> / </plist>
tvsh : Tony Shepperd's R&B Master Series II
tvnn : www.groove3.com
tvsn : 0
tves : 0
desc : Welcome to Tony Shepperd's R&B Master Series II!
ldes : Welcome to Tony Shepperd's R&B Master Series II!
hdvd : 0
stik : 10
cnID : 0

Video
ID : 1
Format : AVC
Format/Info : Advanced Video Codec
Format profile :
Format settings, CABAC : Yes
Format settings, ReFrames : 4 frames
Codec ID : avc1
Codec ID/Info : Advanced Video Coding
Duration : 1mn 13s
Bit rate mode : Variable
Bit rate : 645 Kbps
Width : 1 280 pixels
Height : 720 pixels
Display aspect ratio : 16:9
Frame rate mode : Variable
Frame rate : 23.976 fps
Minimum frame rate : 23.974 fps
Maximum frame rate : 23.981 fps
Color space : YUV
Chroma subsampling : 4:2:0
Bit depth : 8 bits
Scan type : Progressive
Bits/(Pixel*Frame) : 0.029
Stream size : 5.74 MiB (83%)
Writing library : x264 core 120
Encoding settings : cabac=1 / ref=2 / deblock=1:0:0 / analyse=0x1:0x111 / me=hex / subme=6 / psy=1 / psy_rd=1.00:0.00 / mixed_ref=0 / me_range=16 / chroma_me=1 / trellis=0 / 8x8dct=0 / cqm=0 / deadzone=21,11 / fast_pskip=1 / chroma_qp_offset=-2 / threads=12 / sliced_threads=0 / nr=0 / decimate=1 / interlaced=0 / bluray_compat=0 / constrained_intra=0 / bframes=2 / b_pyramid=2 / b_adapt=1 / b_bias=0 / direct=1 / weightb=0 / open_gop=0 / weightp=2 / keyint=240 / keyint_min=24 / scenecut=40 / intra_refresh=0 / rc_lookahead=40 / rc=2pass / mbtree=1 / bitrate=645 / ratetol=1.0 / qcomp=0.60 / qpmin=3 / qpmax=69 / qpstep=4 / cplxblur=20.0 / qblur=0.5 / ip_ratio=1.40 / aq=1:1.00
Encoded date : UTC 2013-10-08 15:51:16
Tagged date : UTC 2013-10-08 15:51:33
Color primaries : BT.709-5, BT.1361, IEC 61966-2-4, SMPTE RP177
Transfer characteristics : BT.709-5, BT.1361
Matrix coefficients : BT.709-5, BT.1361, IEC 61966-2-4 709, SMPTE RP177

Audio
ID : 2
Format : AAC
Format/Info : Advanced Audio Codec
Format version : Version 4
Format profile : LC
Format settings, SBR : No
Codec ID : 40
Duration : 1mn 13s
Bit rate mode : Variable
Bit rate : 122 Kbps
Maximum bit rate : 232 Kbps
Channel(s) : 2 channels
Channel positions : Front: L R
Sampling rate : 44.1 KHz
Stream size : 1.07 MiB (15%)
Language : English
Encoded date : UTC 2013-10-08 15:51:16
Tagged date : UTC 2013-10-08 15:51:33

Text
ID : 3
Format : Apple text
Codec ID : text
Duration : 1mn 13s
Bit rate : 3 bps
Stream size : 23.0 Bytes (0%)
Encoded date : UTC 2013-10-08 23:13:06
Tagged date : UTC 2013-10-08 23:13:06
Скриншоты:


Время раздачи: C 10:00 до 24:00
У вас нет необходимых прав для просмотра вложений в этом сообщении.