Видео


Сообщение

Видео vfxsmolino.net | Пара слов о wi-fi (сборник) (2010) [PCRec]

Сообщение Smartbot » 28 янв 2014, 22:13

vfxsmolino.net | Пара слов о wi-fi (сборник) (2010) [PCRec]

Автор: vfxsmolino.net
Жанр: Обучающие видеоуроки
Продолжительность: 00:41:09
Качество видео: PCRec
Видеокодек: FLV, AVC, WMV
Битрейт видео: ~256 - 961kbps, 25 - 50fps
Размер кадра: 320x240, 480x270, 1280x720
Аудиокодек: AAC, MP3, WMA
Битрейт аудио: 44100 - 48000Hz stereo 65 - 192kbps
Доп. материалы: Есть

Описание:
Всё подробно и доступно о wi-fi.
Описание:

Как подключить два компьютера напрямую через Wi-Fi.mp4
Wireshark, взлом и защита в открытых wi-fi сетях.mp4
Xaker-Wi-Fi.pdf
Взлом и защита Wi-Fi. Описание технологии.mp4
Беспроводная технология Wi-Fi.flv
Проектирование и внедрение компьютерных сетей.pdf
Взлом wi-fi , подбор паролей EWSA.mp4
Защищенная Wi-Fi сеть для дома.doc
Щербаков А.К., Wi-Fi. Все, что Вы хотели знать, но боялись спросить.pdf
Как обезопасить свою Wi-Fi точку от соседей халявщиков.txt
Как собрать антенны для связи, телевидения, Wi-Fi своими руками.djvu
Легкий способ обмануть Wi-Fi.mp4
Debian, настройка wi-fi.pdf
Усилитель мощности для Wi-Fi сетей.djvu
Как собрать wi-fi передатчик в домашних условиях.avi
Внешние антенны Wi-Fi своими руками.pdf
Беспроводные сети Wi-Fi.pdf
Джон Росс. Wi-Fi. Беспроводная сеть.djvu
Общее
Полное имя : D:\Андрей\Para_slov_o_wi-fi\Wireshark, взлом и защита в открытых wi-fi сетях.mp4
Формат : MPEG-4
Профиль формата : Base Media / Version 2
Идентификатор кодека : mp42
Размер файла : 64,3 Мбайт
Продолжительность : 7 м. 46 с.
Режим общего битрейта : Переменный
Общий поток : 1156 Кбит/сек
Дата кодирования : UTC 2013-07-19 16:09:18
Дата пометки : UTC 2013-07-19 16:09:18
gsst : 0
gstd : 466603
gssd : B4A7DD8E5HH1380032259138253
gshh : r5---sn-cg07luer.c.youtube.com

Видео
Идентификатор : 1
Формат : AVC
Формат/Информация : Advanced Video Codec
Профиль формата :
Параметр CABAC формата : Да
Параметр ReFrames формата : 1 кадр
Идентификатор кодека : avc1
Идентификатор кодека/Информация : Advanced Video Coding
Продолжительность : 7 м. 46 с.
Битрейт : 961 Кбит/сек
Максимальный битрейт : 5448 Кбит/сек
Ширина : 1280 пикселей
Высота : 720 пикселей
Соотношение сторон : 16:9
Режим частоты кадров : Постоянный
Частота кадров : 25,000 кадров/сек
Цветовое пространство : YUV
Субдискретизация насыщенности : 4:2:0
Битовая глубина : 8 бит
Тип развёртки : Прогрессивная
Бит/(Пиксели*Кадры) : 0.042
Размер потока : 53,5 Мбайт (83%)
Дата пометки : UTC 2013-07-19 16:09:21

Аудио
Идентификатор : 2
Формат : AAC
Формат/Информация : Advanced Audio Codec
Профиль формата : LC
Идентификатор кодека : 40
Продолжительность : 7 м. 46 с.
Вид битрейта : Переменный
Битрейт : 192 Кбит/сек
Максимальный битрейт : 201 Кбит/сек
Каналы : 2 канала
Расположение каналов : Front: L R
Частота : 44,1 КГц
Метод сжатия : С потерями
Размер потока : 10,7 Мбайт (17%)
Заголовок : IsoMedia File Produced by Google, 5-11-2011
Дата кодирования : UTC 2013-07-19 16:09:20
Дата пометки : UTC 2013-07-19 16:09:21
Общее
Полное имя : D:\Андрей\Para_slov_o_wi-fi\Беспроводная технология Wi-Fi.flv
Формат : Flash Video
Размер файла : 9,54 Мбайт
Продолжительность : 2 м. 58 с.
Общий поток : 447 Кбит/сек

Видео
Формат : VP6
Идентификатор кодека : 4
Продолжительность : 2 м. 58 с.
Битрейт : 400 Кбит/сек
Ширина : 480 пикселей
Высота : 270 пикселей
Соотношение сторон : 16:9
Режим частоты кадров : Постоянный
Частота кадров : 50,000 кадров/сек
Битовая глубина : 8 бит
Бит/(Пиксели*Кадры) : 0.062
Размер потока : 8,53 Мбайт (89%)

Аудио
Формат : MPEG Audio
Версия формата : Version 1
Профиль формата : Layer 3
Идентификатор кодека : 2
Идентификатор кодека/Подсказка : MP3
Продолжительность : 2 м. 58 с.
Вид битрейта : Постоянный
Битрейт : 65,0 Кбит/сек
Каналы : 1 канал
Частота : 44,1 КГц
Метод сжатия : С потерями
Задержка видео : -665 мс.
Размер потока : 1,37 Мбайт (14%)
Общее
Полное имя : D:\Андрей\Para_slov_o_wi-fi\как собрать wi-fi передатчик в домашних условиях.avi
Формат : Windows Media
Размер файла : 8,43 Мбайт
Продолжительность : 2 м. 34 с.
Режим общего битрейта : Постоянный
Общий поток : 458 Кбит/сек
Максимальный общий битрейт : 458 Кбит/сек
Название фильма : Produced by Telestream Flip Technology
Дата кодирования : UTC 2007-01-28 19:28:53.290

Видео
Идентификатор : 2
Формат : VC-1
Профиль формата : MP@LL
Идентификатор кодека : WMV3
Идентификатор кодека/Информация : Windows Media Video 9
Идентификатор кодека/Подсказка : WMV3
Описание кодека : Windows Media Video 9
Продолжительность : 2 м. 34 с.
Вид битрейта : Постоянный
Битрейт : 256 Кбит/сек
Ширина : 320 пикселей
Высота : 240 пикселей
Соотношение сторон : 4:3
Частота кадров : 30,000 кадров/сек
Битовая глубина : 8 бит
Тип развёртки : Прогрессивная
Метод сжатия : С потерями
Бит/(Пиксели*Кадры) : 0.111
Размер потока : 4,72 Мбайт (56%)
Язык : English (US)

Аудио
Идентификатор : 3
Формат : WMA
Версия формата : Version 2
Идентификатор кодека : 161
Идентификатор кодека/Информация : Windows Media Audio
Описание кодека : Windows Media Audio 9.1 - 160 kbps, 48 kHz, stereo 1-pass CBR
Продолжительность : 2 м. 34 с.
Вид битрейта : Постоянный
Битрейт : 160 Кбит/сек
Каналы : 2 канала
Частота : 48,0 КГц
Битовая глубина : 16 бит
Размер потока : 2,95 Мбайт (35%)
Язык : English (US)


Скриншоты:


Время раздачи:
24/7 (круглосуточно)

Постеры

Соцсети

 

Статистика

Автор: Smartbot
Добавлен: 28 янв 2014, 22:13
Размер: 253.37 МБ
Размер: 265 678 135 байт
Сидеров: 101
Личеров: 3
Скачали: 3
Здоровье: 100%
Раздающих: 100%
Скорость скачивания: 0 байт/сек
Скорость раздачи: 0 байт/сек
Последний сидер: 1 год 11 месяцев 13 дней 8 часов 19 минут 38 секунд назад
Последний личер: 1 месяц 16 дней 10 часов 47 минут 41 секунду назад
Приватный: Нет (DHT включён)
Сеть и безопасность Скачать торрент
Скачать торрент
[ Размер 22.52 КБ / Просмотров 14 ]

Поделиться



  • Похожие торренты
    Ответы
    Просмотры
    Последнее сообщение

Вернуться в Сеть и безопасность