Lynda.com | Настройка музыкальной студии и акустики (2013) [CamRip] [EN]

Видео уроки, книги, учебники по созданию музыки, работа с звуковыми редакторами
Торрент Сидеров Личеров Размер
torrent_139136.torrent
4 5 620.28 МБ
Smartbot

Lynda.com | Настройка музыкальной студии и акустики (2013) [CamRip] [EN]

Сообщение Smartbot » 28 янв 2014, 22:14

Lynda.com | Настройка музыкальной студии и акустики (2013) [CamRip] [EN]

Автор (режиссер): Lynda.com
Оригинальное название: Music Studio Setup and Acoustics
Жанр: Работа со звуком
Язык: Английский
Продолжительность: 01:20:00
Качество видео: CamRip
Видеокодек: AVC/H.264
Битрейт видео: ~1 587 Kbps, 30.000 fps
Размер кадра: 960x540, 16:9
Аудиокодек: AAC
Битрейт аудио: ~160 Kbps, 2 channels, 48.0 KHz

Описание: Узнайте, как создать и настроить звучание музыкальных студий. Все музыкальные студии в подвалах, гаражах и отдельно стоящих зданиях могут воспользоваться методами, описанными в этом курсе. Музыкальный инженер и промышленный инсайдер Bobby Owsinski убирает завесу с прекрасного звучания пространства и рассказывает о некоторых акустических принципах и практических методах для получения наилучшего звучания студии с наименьшими затратами и усилиями.
Learn how to set up and tweak the sound of your music studio. From basements and garages to standalone buildings, all music studios can benefit from the techniques shown in this course. Music engineer and industry insider Bobby Owsinski strips away the mystery behind a great-sounding space and introduces some acoustic principles and hands-on techniques for getting the best sound from your studio for the least cost and effort. Learn isolation techniques and acoustic control methods, plus practical, step-by-step instructions for building your own acoustic panels, bass traps, and diffusers. Bobby also shows you how to determine the best listening position in your room and create a reflection-free zone—the key to getting great audio.

Topics include:
• Design ideas for your studio setup
• Understanding what soundproofing materials don't work
• Increasing isolation in your space
• Timing a room's reverb
• Purchasing acoustic materials: what and where
• Making your own soundproofing elements
• Do-it-yourself acoustic panel construction
• Creating a reflection-free zone (RFZ)
• Buying pre-made acoustic treatments
0. Introduction 1m 26s
Welcome 1m 26s

1. Studio Design Ideas 7m 54s
A typical musician's needs 4m 16s
Personal studio parameters 3m 38s

2. Soundproofing Basics 14m 43s
What won't work 3m 44s
The two basic isolation principles 4m 6s
Increasing your isolation by adding mass 4m 42s
Increasing your isolation by decreasing leakage 2m 11s

3. Acoustic Control Methods 17m 19s
Room dimensions, standing waves, and modes 6m 40s
The curse of low ceilings 1m 7s
The room's reverb time 1m 43s
A look at absorption 2m 22s
The reflection-free zone 58s
The idea behind acoustic panels 57s
Bass trap overview 2m 34s
Diffuser overview 58s

4. Constructing the Components 15m 13s
Purchasing general building supplies 2m 6s
Purchasing acoustic materials 3m 22s
Making your own acoustic panels 6m 28s
Making your own bass traps 2m 5s
Making your own diffusers 1m 12s

5. Building a Personal-Use Studio 17m 59s
Determining your listening position 1m 29s
Creating the reflection-free zone 1m 3s
Treating the floor and ceiling 2m 45s
Acoustic panel placement 57s
Installing the acoustic panels 1m 13s
Treating the corners 1m 50s
Treating the windows 1m 5s
Treating the doors 2m 22s
Treating the front and rear walls 2m 52s
A simple HVAC solution 2m 23s

6. Premade Acoustic Components 4m 41s
Buying premade acoustic treatment 2m 18s
Buying a premade vocal booth 2m 23s

7. Conclusion 1m 29s
Goodbye 1m 29s
General
Complete name : E:\Lynda.com - Music Studio Setup and Acoustics\0. Welcome\124073_00_01_WL30_welcome.mov
Format : QuickTime
Format/Info : Original Apple specifications
File size : 18.1 MiB
Duration : 1mn 26s
Overall bit rate mode : Variable
Overall bit rate : 1 751 Kbps
Encoded date : UTC 2013-11-06 22:40:17
Tagged date : UTC 2013-11-06 22:40:17
Writing library : Apple QuickTime
Copyright : lynda.com

Video
ID : 1
Format : AVC
Format/Info : Advanced Video Codec
Format profile :
Format settings, CABAC : Yes
Format settings, ReFrames : 3 frames
Codec ID : avc1
Codec ID/Info : Advanced Video Coding
Duration : 1mn 26s
Bit rate : 1 587 Kbps
Width : 960 pixels
Height : 540 pixels
Display aspect ratio : 16:9
Frame rate mode : Constant
Frame rate : 30.000 fps
Standard : PAL
Color space : YUV
Chroma subsampling : 4:2:0
Bit depth : 8 bits
Scan type : Progressive
Bits/(Pixel*Frame) : 0.102
Stream size : 16.4 MiB (91%)
Language : English
Encoded date : UTC 2013-11-06 22:40:17
Tagged date : UTC 2013-11-06 22:40:17
Color primaries : BT.709
Transfer characteristics : BT.709
Matrix coefficients : BT.709

Audio
ID : 2
Format : AAC
Format/Info : Advanced Audio Codec
Format profile : LC
Codec ID : 40
Duration : 1mn 26s
Bit rate mode : Variable
Bit rate : 160 Kbps
Maximum bit rate : 163 Kbps
Channel(s) : 2 channels
Channel positions : Front: L R
Sampling rate : 48.0 KHz
Compression mode : Lossy
Stream size : 1.66 MiB (9%)
Language : English
Encoded date : UTC 2013-11-06 22:40:17
Tagged date : UTC 2013-11-06 22:40:17
Скриншоты:


Время раздачи: C 10:00 до 24:00
У вас нет необходимых прав для просмотра вложений в этом сообщении.