Groove3 | Запись Рока - Барабаны (2012) [PCRec] [EN]

Видео уроки, книги, учебники по созданию музыки, работа с звуковыми редакторами
Торрент Сидеров Личеров Размер
torrent_139140.torrent
7 6 1.04 ГБ
Smartbot

Groove3 | Запись Рока - Барабаны (2012) [PCRec] [EN]

Сообщение Smartbot » 28 янв 2014, 22:14

Groove3 | Запись Рока - Барабаны (2012) [PCRec] [EN]

Автор (режиссер): Groove3
Оригинальное название: Tracking Rock - Drums
Жанр: Работа со звуком
Язык: Английский
Продолжительность: 02:28:37
Качество видео: PCRec
Видеокодек: AVC/H.264
Битрейт видео: ~258 Kbps, 30.000 fps
Размер кадра: 1024x768, 4:3
Аудиокодек: AAC
Битрейт аудио: ~105 Kbps, 2 channels, 44.1 KHz

Описание: Мультиплатиновый инженер и продюсер Kenny Gioia, шаг за шагом продемонстрирует вам, как он настраивает, записывает и редактирует барабаны для любой рок / поп-мелодии.
This collection of video tutorials by the one and only Kenny Gioia takes you inside Kenny's personal recording lair and shows you step by step how kenny sets up and records the foundation of any rock / pop tune, the drums. From set up to performance to editing, it's all here, meticulously demonstrated by multi-platinum engineer and producer Kenny Gioia.
Kenny begins with an in-depth introduction where he goes through the setup procedure including mic choices, preamps, input gain staging, drum heads and tuning. Next he gives you a tutorial for each of the main components in the drum kit such as kick, snare, toms, overheads and the illusive "Room" mic.
Kenny then focuses on the performance and how to ready the drummer for their take as well as click track and headphone mixes. Multiple takes and comping is also discussed. Extra processing is shown with plug-ins like like the transient designer and IR reverbs to make the drums sound like they were recorded in a different space.
Editing is next on Kenny's menu and he shows you the pros and cons for both Elastic Audio and Beat Detective Editing. Finally Kenny wraps up the series with 2 more videos on adding kick and snare samples to fatten up your drum sound.
If you record drums or are just getting into the art of recording, Kenny's methods and techniques are an indispensable addition to your toolbox, so clear your schedule and hang out with Kenny and learn his way of handling the skins today!
01. Introduction 09m:14s
02. The Kick Drum 13m:30s
03. The Snare Drum 16m:58s
04. The Toms 15m:46s
05. The Overheads 14m:14s
06. The Room Mics 14m:18s
07. The Performance 07m:21s
08. Extra Processing 11m:53s
09. Elastic Audio Editing 11m:04s
10. Beat Detective Editing 15m:07s
11. Adding Kick Samples 10m:08s
12. Adding Snare Samples 09m:04s
General
Complete name : E:\TORRENTS.RU\Groove3 - Tracking Rock-Drums\Groove3 - Tracking Rock-Drums\01Introduction_HD.mp4
Format : MPEG-4
Format profile : Base Media / Version 2
Codec ID : mp42
File size : 24.3 MiB
Duration : 9mn 13s
Overall bit rate mode : Variable
Overall bit rate : 368 Kbps
Movie name : Introduction
Album/Performer : Kenny Gioia
Part/Position : 1
Part/Total : 1
Track name/Position : 1
Track name/Total : 12
Performer : Tracking Rock - Drums
Genre : Video Training
Encoded date : UTC 2012-11-23 01:19:45
Tagged date : UTC 2012-11-22 02:10:42
Copyright : 2012 Groove 3 Inc.
Cover : Yes
desc : Watch Kenny go through the setup for recording live rock drums including mic choices, preamps, inputs and outputs on the interface, drum heads and tuning.
ldes : Watch Kenny go through the setup for recording live rock drums including mic choices, preamps, inputs and outputs on the interface, drum heads and tuning.
stik : 10
iTunMOVI : <?xml version="1.0" encoding="UTF-8"?> / <!DOCTYPE plist PUBLIC "-/Apple/DTD PLIST 1.0/EN" "http://www.apple.com/DTDs/PropertyList-1.0.dtd"> / <plist version="1.0"> / <dict> / <key>directors</key> / <array> / <dict> / <key>name</key> / <string>Kenny Gioia</string> / </dict> / </array> / <key>producers</key> / <array> / <dict> / <key>name</key> / <string>Groove 3 Inc.</string> / </dict> / </array> / </dict> / </plist>
tvsh : Tracking Rock - Drums
tves : 1
tvnn : www.groove3.com

Video
ID : 1
Format : AVC
Format/Info : Advanced Video Codec
Format profile :
Format settings, CABAC : Yes
Format settings, ReFrames : 4 frames
Codec ID : avc1
Codec ID/Info : Advanced Video Coding
Duration : 9mn 13s
Bit rate mode : Variable
Bit rate : 258 Kbps
Width : 1 024 pixels
Height : 768 pixels
Display aspect ratio : 4:3
Frame rate mode : Constant
Frame rate : 30.000 fps
Color space : YUV
Chroma subsampling : 4:2:0
Bit depth : 8 bits
Scan type : Progressive
Bits/(Pixel*Frame) : 0.011
Stream size : 17.1 MiB (70%)
Writing library : x264 core 120
Encoding settings : cabac=1 / ref=2 / deblock=1:0:0 / analyse=0x1:0x111 / me=hex / subme=6 / psy=1 / psy_rd=1.00:0.00 / mixed_ref=0 / me_range=16 / chroma_me=1 / trellis=0 / 8x8dct=0 / cqm=0 / deadzone=21,11 / fast_pskip=1 / chroma_qp_offset=-2 / threads=12 / sliced_threads=0 / nr=0 / decimate=1 / interlaced=0 / bluray_compat=0 / constrained_intra=0 / bframes=2 / b_pyramid=2 / b_adapt=1 / b_bias=0 / direct=1 / weightb=0 / open_gop=0 / weightp=2 / keyint=300 / keyint_min=30 / scenecut=40 / intra_refresh=0 / rc_lookahead=40 / rc=2pass / mbtree=1 / bitrate=258 / ratetol=1.0 / qcomp=0.60 / qpmin=3 / qpmax=69 / qpstep=4 / cplxblur=20.0 / qblur=0.5 / ip_ratio=1.40 / aq=1:1.00
Encoded date : UTC 2012-11-23 01:19:45
Tagged date : UTC 2012-11-23 01:20:51
Color primaries : BT.709
Transfer characteristics : BT.709
Matrix coefficients : BT.709

Audio
ID : 2
Format : AAC
Format/Info : Advanced Audio Codec
Format profile : LC
Codec ID : 40
Duration : 9mn 13s
Bit rate mode : Variable
Bit rate : 105 Kbps
Maximum bit rate : 178 Kbps
Channel(s) : 2 channels
Channel positions : Front: L R
Sampling rate : 44.1 KHz
Compression mode : Lossy
Delay relative to video : 67ms
Stream size : 6.91 MiB (28%)
Language : English
Encoded date : UTC 2012-11-23 01:19:45
Tagged date : UTC 2012-11-23 01:20:50
Скриншоты:


Время раздачи: C 10:00 до 24:00
У вас нет необходимых прав для просмотра вложений в этом сообщении.