Groove3 | Запись Рока - Бас-гитара (2013) [PCRec] [EN]

Видео уроки, книги, учебники по созданию музыки, работа с звуковыми редакторами
Торрент Сидеров Личеров Размер
torrent_139142.torrent
3 4 229.55 МБ
Smartbot

Groove3 | Запись Рока - Бас-гитара (2013) [PCRec] [EN]

Сообщение Smartbot » 28 янв 2014, 22:14

Groove3 | Запись Рока - Бас-гитара (2013) [PCRec] [EN]

Автор (режиссер):Groove3
Оригинальное название: Tracking Rock - Bass
Жанр: Работа со звуком
Язык: Английский
Продолжительность: 01:19:06
Качество видео: PCRec
Видеокодек: AVC/H.264
Битрейт видео: ~258 Kbps, 30.000 fps
Размер кадра: 1600x900, 16:9
Аудиокодек: AAC
Битрейт аудио: ~114 Kbps, 2 channels, 44.1 KHz

Описание: Kenny Gioia возвращается еще с одним выпуском из серии "Tracking Rock", на этот раз с упором на низкие частоты, на бас-гитару. Вы увидите, как делать трекинг бас-гитары от и до. Kenny сперва познакомит вас с песней, далее он перейдет к устройствам для записи бас-гитары, охватыватит как усилители, так и директ-боксы. Затем, Кенни покажет, как проверить фазы, чтобы сохранить ваши звуковые волны в линии без ущерба для низких частот. Он объяснит, как получить правильные уровни записи, а также как применять компрессию и эквализацию низких частот. Кенни обсудит плюсы и минусы игры пальцами и медиатором. Покажет реальный трекинг бас-гитары, и далее Kenny будет использовать некоторые плагины для усиления низких частот тона, такие как Bass Amp Room от Softube. Применив дисторшн к басу для создания более агрессивного тона, Kenny завершит серию уроков микшированием бас-гитары в песне, используя боковую цепь компрессора, что позволит бочке пробиваться через звук бас-гитары.
Kenny Gioia returns with another installment of Tracking Rock, this time focusing on the lowest of frequencies, bass guitar. You'll see how to track bass guitar from top to bottom and everything in between.Kenny starts with an introduction where he introduces you to the song and outlines the videos to come.
Next, Kenny goes over setting up to record the bass guitar, covering both amps and direct boxes. Then, Kenny shows you how to check the phase to keep your sound waves in line without reducing your bottom end.
How to get proper recording levels are then explained, as well as how to apply compression and EQ to your bass sound. Arrangement tips are up next and Kenny discusses the pros and cons of playing with fingers and a pick. Tracking the actual bass part is then shown, and then Kenny uses some plug-ins to enhance the bass tone such as Bass Amp Room by Softube.
Applying distortion to the bass is then explored, to create more aggressive tones. Kenny wraps up the series with a great tutorial on how to mix the bass guitar in the song, utilizing a sidechain compressor, which allows the bass drum to cut through the bass guitar sound when it hits.
If you need to record bass guitar or are just getting into recording, this series will show you a proven method for tracking bass guitar and then mixing it in a song... Watch "Tracking Rock - Bass" today.
01 Introduction
02 Setting Up DI and Amp
03 Checking the Phase
04 Proper Recording Levels And Meters
05 Compression and EQ
06 Bass Arrangement
07 Recording Bass And Punching
08 Bass Amp Room
09 Bass Distortion
10 Mixing the Bass, Bussing And Sidechain
General
Complete name : E:\TORRENTS.RU\Groove3 - Tracking Rock Bass\Groove3 - Tracking Rock Bass\01 Introduction.mp4
Format : MPEG-4
Format profile : Base Media / Version 2
Codec ID : mp42
File size : 11.2 MiB
Duration : 4mn 7s
Overall bit rate mode : Variable
Overall bit rate : 381 Kbps
Movie name : Introduction
Album/Performer : Kenny Gioia
Part/Position : 1
Part/Total : 1
Track name/Position : 1
Track name/Total : 10
Performer : Tracking Rock - Bass
Genre : Video Training
Encoded date : UTC 2013-10-07 05:17:38
Tagged date : UTC 2013-10-08 20:39:23
Copyright : 2013 Groove 3 Inc.
Cover : Yes
iTunMOVI : <?xml version="1.0" encoding="UTF-8"?> / <!DOCTYPE plist PUBLIC "-/Apple/DTD PLIST 1.0/EN" "http://www.apple.com/DTDs/PropertyList-1.0.dtd"> / <plist version="1.0"> / <dict> / <key>directors</key> / <array> / <dict> / <key>name</key> / <string>Kenny Gioia</string> / </dict> / </array> / <key>producers</key> / <array> / <dict> / <key>name</key> / <string>Groove 3 Inc.</string> / </dict> / </array> / <key>studio</key> / <string>Groove 3 Inc.</string> / </dict> / </plist>
tvsh : Tracking Rock - Bass
tvnn : www.groove3.com
tvsn : 0
tves : 1
desc : In this tutorial, Kenny goes over the piece of music that we're going to track Bass guitar to along with each step we will take in the following videos to create a finished part.
ldes : In this tutorial, Kenny goes over the piece of music that we're going to track Bass guitar to along with each step we will take in the following videos to create a finished part.
hdvd : 0
stik : 10
cnID : 0

Video
ID : 1
Format : AVC
Format/Info : Advanced Video Codec
Format profile :
Format settings, CABAC : Yes
Format settings, ReFrames : 4 frames
Codec ID : avc1
Codec ID/Info : Advanced Video Coding
Duration : 4mn 7s
Bit rate mode : Variable
Bit rate : 258 Kbps
Width : 1 600 pixels
Height : 900 pixels
Display aspect ratio : 16:9
Frame rate mode : Constant
Frame rate : 30.000 fps
Color space : YUV
Chroma subsampling : 4:2:0
Bit depth : 8 bits
Scan type : Progressive
Bits/(Pixel*Frame) : 0.006
Stream size : 7.68 MiB (68%)
Writing library : x264 core 120
Encoding settings : cabac=1 / ref=2 / deblock=1:0:0 / analyse=0x1:0x111 / me=hex / subme=6 / psy=1 / psy_rd=1.00:0.00 / mixed_ref=0 / me_range=16 / chroma_me=1 / trellis=0 / 8x8dct=0 / cqm=0 / deadzone=21,11 / fast_pskip=1 / chroma_qp_offset=-2 / threads=12 / sliced_threads=0 / nr=0 / decimate=1 / interlaced=0 / bluray_compat=0 / constrained_intra=0 / bframes=2 / b_pyramid=2 / b_adapt=1 / b_bias=0 / direct=1 / weightb=0 / open_gop=0 / weightp=2 / keyint=300 / keyint_min=30 / scenecut=40 / intra_refresh=0 / rc_lookahead=40 / rc=2pass / mbtree=1 / bitrate=258 / ratetol=1.0 / qcomp=0.60 / qpmin=3 / qpmax=69 / qpstep=4 / cplxblur=20.0 / qblur=0.5 / ip_ratio=1.40 / aq=1:1.00
Encoded date : UTC 2013-10-07 05:17:38
Tagged date : UTC 2013-10-07 05:18:29
Color primaries : BT.709
Transfer characteristics : BT.709
Matrix coefficients : BT.709

Audio
ID : 2
Format : AAC
Format/Info : Advanced Audio Codec
Format profile : LC
Codec ID : 40
Duration : 4mn 7s
Bit rate mode : Variable
Bit rate : 114 Kbps
Maximum bit rate : 308 Kbps
Channel(s) : 2 channels
Channel positions : Front: L R
Sampling rate : 44.1 KHz
Compression mode : Lossy
Delay relative to video : 67ms
Stream size : 3.35 MiB (30%)
Language : English
Encoded date : UTC 2013-10-07 05:17:38
Tagged date : UTC 2013-10-07 05:18:28

Text
ID : 4
Format : Apple text
Codec ID : text
Duration : 4mn 7s
Bit rate : 1 bps
Delay relative to video : 67ms
Stream size : 23.0 Bytes (0%)
Encoded date : UTC 2013-10-08 20:39:23
Tagged date : UTC 2013-10-08 20:39:23
Скриншоты:


Время раздачи: C 10:00 до 24:00
У вас нет необходимых прав для просмотра вложений в этом сообщении.