Zwook.ru | Красивая мелодика без знания нот (2013) [PCRec]

Видео уроки, книги, учебники по созданию музыки, работа с звуковыми редакторами
Торрент Сидеров Личеров Размер
torrent_139152.torrent
18 3 499.9 МБ
Smartbot

Zwook.ru | Красивая мелодика без знания нот (2013) [PCRec]

Сообщение Smartbot » 28 янв 2014, 22:18

Zwook.ru | Красивая мелодика без знания нот (2013) [PCRec]

Автор (режиссер): Zwook.ru
Жанр: Работа со звуком
Язык: Русский
Продолжительность: 00:48:57
Качество видео: PCRec
Видеокодек: AVC/H.264
Битрейт видео: 1 228 Kbps, 30.000 fps
Размер кадра: 1152x720, 1.600
Аудиокодек: AAC
Битрейт аудио: 176 Kbps, 2 channels, 44.1 KHz

Описание: Чтобы писать красивые мелодии и гармонии нужно обязательно разбираться в нотах, а лучше иметь специальное образование. Да? Или нет? Есть такое убеждение у большинства тех, кто приходит в музыку. Те, кто этими знаниями не обладают, сжав зубы, пытаются вникнуть в классическую нотную грамоту, перегруженную неясными терминами и далекую от реальности. Или же есть другой вариант — решить, что это “не для меня” и смириться с участью незнайки, которому не дано создавать красивые мелодические треки.
Предлагаем третий, альтернативный вариант!
Узнай простейший способ создания красивых мелодий для любого стиля музыки, который может освоить каждый за несколько часов.
General
Complete name : E:\TORRENTS.RU\Zwook.ru - Красивая мелодика без знания нот\Гармония.mov
Format : MPEG-4
Format profile : QuickTime
Codec ID : qt
File size : 493 MiB
Duration : 48mn 56s
Overall bit rate : 1 409 Kbps
Encoded date : UTC 2013-04-07 09:44:50
Tagged date : UTC 2013-04-07 09:45:56
Writing library : Apple QuickTime
com.apple.quicktime.software : ScreenFlow

Video
ID : 2
Format : AVC
Format/Info : Advanced Video Codec
Format profile :
Format settings, CABAC : No
Format settings, ReFrames : 2 frames
Codec ID : avc1
Codec ID/Info : Advanced Video Coding
Duration : 48mn 56s
Source duration : 48mn 56s
Bit rate : 1 228 Kbps
Width : 1 152 pixels
Height : 720 pixels
Display aspect ratio : 1.600
Frame rate mode : Constant
Frame rate : 30.000 fps
Color space : YUV
Chroma subsampling : 4:2:0
Bit depth : 8 bits
Scan type : Progressive
Bits/(Pixel*Frame) : 0.049
Stream size : 430 MiB (87%)
Source stream size : 430 MiB (87%)
Language : English
Encoded date : UTC 2013-04-07 09:12:09
Tagged date : UTC 2013-04-07 09:45:56
Color primaries : BT.709
Transfer characteristics : BT.709
Matrix coefficients : BT.709

Audio
ID : 1
Format : AAC
Format/Info : Advanced Audio Codec
Format profile : LC
Codec ID : 40
Duration : 48mn 56s
Source duration : 48mn 56s
Bit rate mode : Constant
Bit rate : 176 Kbps
Nominal bit rate : 192 Kbps
Channel(s) : 2 channels
Channel positions : Front: L R
Sampling rate : 44.1 KHz
Compression mode : Lossy
Stream size : 61.5 MiB (12%)
Source stream size : 61.5 MiB (12%)
Language : English
Encoded date : UTC 2013-04-07 09:12:09
Tagged date : UTC 2013-04-07 09:45:56
Скриншоты:


Время раздачи: C 10:00 до 24:00
У вас нет необходимых прав для просмотра вложений в этом сообщении.

Аватара пользователя
reprime
Сообщения: 16
Зарегистрирован: 02 окт 2014, 15:26

Re: Zwook.ru | Красивая мелодика без знания нот (2013) [PCRec]

Сообщение reprime » 02 окт 2014, 19:31

Спасибо!

Аватара пользователя
andril09
Сообщения: 2
Зарегистрирован: 20 авг 2015, 17:17

Re: Zwook.ru | Красивая мелодика без знания нот (2013) [PCRec]

Сообщение andril09 » 02 сен 2015, 15:30

Господа, дайте скорости, пожалуйста. :39: