Trance Music Mastery | Настройка Вашей Студии (2012) [PCRec] [EN]

Видео уроки, книги, учебники по созданию музыки, работа с звуковыми редакторами
Торрент Сидеров Личеров Размер
torrent_139158.torrent
2 5 378.16 МБ
Smartbot

Trance Music Mastery | Настройка Вашей Студии (2012) [PCRec] [EN]

Сообщение Smartbot » 28 янв 2014, 22:18

Trance Music Mastery | Настройка Вашей Студии (2012) [PCRec] [EN]

Автор (режиссер): Trance Music Mastery
Оригинальное название: Setting Up Your Studio
Жанр: Работа со звуком
Язык: Английский
Продолжительность: 01:19:55
Качество видео: PCRec
Видеокодек: AVC/H.264
Битрейт видео: ~170 Kbps29.970 fps
Размер кадра: 1280x720, 16:9
Аудиокодек: AAC
Битрейт аудио: ~320 Kbps, 2 channels, 48.0 KHz

Описание: Из курса от Trance Music Mastery вы узнаете как обустроить вашу студию, как откалибровать мониторы и как выбрать правильную позицию прослушивания при сведении.
1. Calibrating Monitor Level Theory
2. Pink Noise Monitor Calibration
3. Pink Noise SPAN
4. Setting Up The Room For Mixing
General
Complete name : E:\TORRENTS.RU\Trance Music Mastery - Setting Up Your Studio\Trance Music Mastery - Setting Up Your Studio\TMM-VIP-2012-Studio Setup Calibrating Monitor Level Theory.mp4
Format : MPEG-4
Format profile : Base Media
Codec ID : isom
File size : 48.5 MiB
Duration : 13mn 40s
Overall bit rate mode : Variable
Overall bit rate : 495 Kbps
Writing application : Lavf52.32.0

Video
ID : 1
Format : AVC
Format/Info : Advanced Video Codec
Format profile :
Format settings, CABAC : Yes
Format settings, ReFrames : 1 frame
Codec ID : avc1
Codec ID/Info : Advanced Video Coding
Duration : 13mn 40s
Bit rate : 170 Kbps
Width : 1 280 pixels
Height : 720 pixels
Display aspect ratio : 16:9
Frame rate mode : Constant
Frame rate : 29.970 fps
Color space : YUV
Chroma subsampling : 4:2:0
Bit depth : 8 bits
Scan type : Progressive
Bits/(Pixel*Frame) : 0.006
Stream size : 16.7 MiB (34%)
Language : English

Audio
ID : 2
Format : AAC
Format/Info : Advanced Audio Codec
Format profile : LC
Codec ID : 40
Duration : 13mn 40s
Bit rate mode : Variable
Bit rate : 320 Kbps
Channel(s) : 2 channels
Channel positions : Front: L R
Sampling rate : 48.0 KHz
Compression mode : Lossy
Stream size : 31.4 MiB (65%)
Language : English
Скриншоты:


Время раздачи: C 10:00 до 24:00
У вас нет необходимых прав для просмотра вложений в этом сообщении.