Groove3 | Сведение с SONAR X1 (2012) [PCRec] [EN]

Видео уроки, книги, учебники по созданию музыки, работа с звуковыми редакторами
Торрент Сидеров Личеров Размер
torrent_139160.torrent
9 9 831.92 МБ
Smartbot

Groove3 | Сведение с SONAR X1 (2012) [PCRec] [EN]

Сообщение Smartbot » 28 янв 2014, 22:18

Groove3 | Сведение с SONAR X1 (2012) [PCRec] [EN]

Автор (режиссер): Groove3
Оригинальное название: Mixing with SONAR X1
Жанр: Работа со звуком
Язык: Английский
Продолжительность: 05:27:24
Качество видео: PCRec
Видеокодек: AVC/H.264
Битрейт видео: ~258 Kbps, 30.000 fps
Размер кадра: 1024x768, 4:3
Аудиокодек: AAC
Битрейт аудио: ~156 Kbps, 2 channels, 44.1 KHz

Описание: Специалист по DAW Уильям Эдстром младший вернулся с новым хитом, который называется "Сведение с SONAR". Вы увидите работу над миксом от начала и до конца. Если вы используете SONAR, Вы должны это видеть. Сначала Уильям покажет нам, как импортировать аудио-треки и как сконструировать и настроить микшерский пульт. Затем он тщательно прорабатывает вокал и бэк-вокал. Затем барабаны, бас, гитары и уже после автоматизация, распечатка для CD и многое другое. Если для вашего продакшна вы используете SONAR, то этот курс у вас должен обязательно быть.
DAW master William Edstrom Jr. is back with another smash hit title, "Mixing with SONAR". You'll see the mix unfold, from beginning to end, with no stones unturned.. If you use SONAR, this is a must see.
William starts at the beginning showing you how to import audio tracks and how to design and set up your mixing board. He then goes meticulously over vocals and background vocals. Drums, bass, guitars are next to receive massaging and then automation, printing for CD and so much more.
If you use SONAR for your productions, this title is a must have. Unlock the true mixing power of SONAR... Get "Mixing with SONAR" today.
01 Introduction 01m:14s
02 Importing Tracks 08m:53s
03 Submix Buses 09m:17s
04 Listen 13m:06s
05 Design Your Desk 07m:03s
06 Channel Colors 02m:43s
07 Musical Time Calc 02m:42s
08 Fast Zoom 03m:36s
09 Lead Vocal Leveling 12m:19s
10 Lead Vocal Sound 10m:41s
11 Vocal Slapback FX 06m:19s
12 Vocal Stereo Delay FX 05m:16s
13 Tightening the BV Pt. 1 21m:42s
14 Tightening the BV Pt. 2 04m:50s
15 BV Panning EQ Comp Verb 13m:06s
16 Overheads 12m:17s
17 Room Mics 07m:46s
18 Kick Sound 08m:40s
19 Kick Sample 08m:31s
20 Snare Sound 09m:20s
21 Kick Revisited 06m:31s
22 Drum Bus 08m:26s
23 Drum Reverb 04m:38s
24 Bass Editing 16m:01s
25 Bass Sound 12m:43s
26 Rhythm Guitars Pt. 1 14m:55s
27 Rhythm Guitars Pt. 2 13m:13s
28 Solo Guitars 11m:58s
29 Shaker 04m:08s
30 Revisions 17m:43s
31 MonoMaker 08m:49s
32 The Big Part 03m:45s
33 Automation 14m:08s
34 Print It 10m:35s
35 X1d Pro Channel EQ 07m:14s
36 X1d Quick Groups 03m:16s
General
Complete name : E:\TORRENTS.RU\Groove3 - Mixing with SONAR X1\01Introduction_HD.mp4
Format : MPEG-4
Format profile : Base Media / Version 2
Codec ID : mp42
File size : 3.84 MiB
Duration : 1mn 14s
Overall bit rate mode : Variable
Overall bit rate : 433 Kbps
Movie name : Introduction
Album/Performer : William Edstrom, Jr.
Part/Position : 1
Part/Total : 1
Track name/Position : 1
Track name/Total : 36
Performer : Mixing with SONAR X1
Genre : Video Training
Encoded date : UTC 2012-02-10 05:56:48
Tagged date : UTC 2012-02-09 12:50:27
Copyright : 2012 Groove 3 Inc.
Cover : Yes
stik : 10
iTunMOVI : <?xml version="1.0" encoding="UTF-8"?> / <!DOCTYPE plist PUBLIC "-/Apple/DTD PLIST 1.0/EN" "http://www.apple.com/DTDs/PropertyList-1.0.dtd"> / <plist version="1.0"> / <dict> / <key>directors</key> / <array> / <dict> / <key>name</key> / <string>William Edstrom</string> / </dict> / <dict> / <key>name</key> / <string>Jr.</string> / </dict> / </array> / <key>producers</key> / <array> / <dict> / <key>name</key> / <string>Groove 3 Inc.</string> / </dict> / </array> / </dict> / </plist>
tvsh : Mixing with SONAR X1
tvnn : www.groove3.com
desc : In this series we will mix a song from importing tracks to printing the final stereo master. We use the X1 Expanded Pro Channel along with optional modules for the majority of the project. This series will show a wide variety mixing techniques as well as t
ldes : In this series we will mix a song from importing tracks to printing the final stereo master. We use the X1 Expanded Pro Channel along with optional modules for the majority of the project. This series will show a wide variety mixing techniques as well as take you on the tour of the Pro Channel Modules and features.
tves : 1

Video
ID : 1
Format : AVC
Format/Info : Advanced Video Codec
Format profile :
Format settings, CABAC : Yes
Format settings, ReFrames : 4 frames
Codec ID : avc1
Codec ID/Info : Advanced Video Coding
Duration : 1mn 14s
Bit rate mode : Variable
Bit rate : 258 Kbps
Width : 1 024 pixels
Height : 768 pixels
Display aspect ratio : 4:3
Frame rate mode : Constant
Frame rate : 30.000 fps
Color space : YUV
Chroma subsampling : 4:2:0
Bit depth : 8 bits
Scan type : Progressive
Bits/(Pixel*Frame) : 0.011
Stream size : 2.38 MiB (62%)
Writing library : x264 core 112
Encoding settings : cabac=1 / ref=2 / deblock=1:0:0 / analyse=0x1:0x111 / me=hex / subme=6 / psy=1 / psy_rd=1.00:0.00 / mixed_ref=0 / me_range=16 / chroma_me=1 / trellis=0 / 8x8dct=0 / cqm=0 / deadzone=21,11 / fast_pskip=1 / chroma_qp_offset=-2 / threads=12 / sliced_threads=0 / nr=0 / decimate=1 / interlaced=0 / constrained_intra=0 / bframes=2 / b_pyramid=2 / b_adapt=1 / b_bias=0 / direct=1 / weightb=0 / open_gop=0 / weightp=2 / keyint=300 / keyint_min=30 / scenecut=40 / intra_refresh=0 / rc_lookahead=40 / rc=2pass / mbtree=1 / bitrate=258 / ratetol=1.0 / qcomp=0.60 / qpmin=3 / qpmax=51 / qpstep=4 / cplxblur=20.0 / qblur=0.5 / ip_ratio=1.40 / aq=1:1.00
Encoded date : UTC 2012-02-10 05:56:48
Tagged date : UTC 2012-02-10 05:56:59
Color primaries : BT.709
Transfer characteristics : BT.709
Matrix coefficients : BT.709

Audio
ID : 2
Format : AAC
Format/Info : Advanced Audio Codec
Format profile : LC
Codec ID : 40
Duration : 1mn 14s
Bit rate mode : Variable
Bit rate : 156 Kbps
Maximum bit rate : 324 Kbps
Channel(s) : 2 channels
Channel positions : Front: L R
Sampling rate : 44.1 KHz
Compression mode : Lossy
Delay relative to video : 67ms
Stream size : 1.39 MiB (36%)
Language : English
Encoded date : UTC 2012-02-10 05:56:48
Tagged date : UTC 2012-02-10 05:56:59
Скриншоты:


Время раздачи: C 10:00 до 24:00
У вас нет необходимых прав для просмотра вложений в этом сообщении.