Хозяин своей судьбы / Хозяин своей судьбы [2011, Психология, DVDRip, RUS] (Видеоурок)

Торрент Сидеров Личеров Размер
torrent_0.torrent
2 10 65.14 МБ
Smartbot

Хозяин своей судьбы / Хозяин своей судьбы [2011, Психология, DVDRip, RUS] (Видеоурок)

Сообщение Smartbot » 08 фев 2014, 22:01

Хозяин своей судьбы / Хозяин своей судьбы
Страна: Казахстан
Тематика: Психология
Тип раздаваемого материала: Видеоурок
Продолжительность: 00:30:59
Год выпуска: 2011
Язык: Русский
Перевод: Не требуется
Описание: Аудио-каст на тему : "Хозяин своей судьбы"
Доп. информация: Общее
Полное имя : Хозяин своей судьбы
Формат : Flash Video
Размер файла : 65,1 Мбайт
Продолжительность : 30 м.
Общий поток : 294 Кбит/сек
Дата кодирования : Wed May 18 16:24:57 2011
Видео
Формат : VP6
Идентификатор кодека : 4
Продолжительность : 30 м.
Битрейт : 217 Кбит/сек
Ширина : 640 пикс.
Высота : 480 пикс.
Соотношение сторон : 4:3
Режим частоты кадров : Постоянный
Частота кадров : 25,000 кадр/сек
Битовая глубина : 8 бит
Бит/(Пиксели*Кадры) : 0.028
Размер потока : 48,2 Мбайт (74%)
Аудио
Формат : MPEG Audio
Версия формата : Version 2
Профиль формата : Layer 3
Режим : Joint stereo
Расширение режима : Intensity Stereo + MS Stereo
Идентификатор кодека : 2
Идентификатор кодека/Подсказка : MP3
Продолжительность : 30 м.
Вид битрейта : Постоянный
Битрейт : 56,0 Кбит/сек
Каналы : 2 канала
Частота : 22,05 КГц
Метод сжатия : С потерями
Размер потока : 12,4 Мбайт (19%)
Качество: DVDRip
Формат: FLV
Видео кодек: VPx
Аудиокодек: MP3
У вас нет необходимых прав для просмотра вложений в этом сообщении.