Видео


Сообщение

Видео Видеокурс "Мой первый курсовик! Все секреты написания курсовой работы для студента" [2013] [2013, Обучающий видеокурс, HDRip, RUS]

Сообщение Таточка » 13 фев 2014, 20:23

Видеокурс "Мой первый курсовик! Все секреты написания курсовой работы для студента" [2013]

Название: Мой первый курсовик! Все секреты написания курсовой работы для студента
Год выхода: 2013
Автор: Владимир Терентьев
Жанр: Обучающий
Продолжительность: 02:53:08
Язык: Русский

Описание:
Видеокурс "Мой первый курсовик! Все секреты написания курсовой работы для студента" - это полноценный обучающий видеокурс по написанию курсовых работ.
Видеокурс состоит из 22 видеоуроков, каждый из которых пошагово объясняет, как следует писать ту или иную часть курсовой работы.
В первую очередь, видеокурс рассчитан на студентов, которые не имеют опыта написания курсовых работ. Однако, он также будет полезен опытным студентам, т.к. в видеокурсе собраны различные полезные советы по написанию курсовой работы, которые не будут лишними.
Содержание
Урок 01 Приветствие
Урок 02 Секрет №1 написания курсовой работы
Урок 03 Секрет №2 написания курсовой работы
Урок 04 Секрет №3 написания курсовой работы
Урок 05 Секрет №4 написания курсовой работы
Урок 06 Секрет №5 написания курсовой работы
Урок 07 Сайты с электронными книгами
Урок 08 Полезные ресурсы
Урок 09 С чего начать?
Урок 10 Формируем содержание курсовой работы
Урок 11 Подбираем источники информации
Урок 12 Введение (теория)
Урок 13 Введение (практика)
Урок 14 Определяем объект и предмет
Урок 15 Теоретическая часть (теория)
Урок 16 Теоретическая часть (практика)
Урок 17 Практическая часть (теория)
Урок 18 Практическая часть (практика)
Урок 19 Заключение
Урок 20 Список использованных источников + приложения
Урок 21 Что делать, если курсовик некогда писать?
Урок 22 Лучший сервис по написанию курсовых работ
Доп. информация: Для просмотра курса запустите файл index.html

Качество: HDRip
Формат: mp4, swf
Видео: MPEG4 Video (H264) 1364x768 10.00fps 894 Кбит/сек
Аудио: AAC 44100Hz stereo 125 Кбит/сек
Размер: 887.58 Mb
MediaInfo
Общее
Полное имя: E:\Терентьев Владимир - Видеокурс Мой первый курсовик (советстуденту.рф)\video\video14\video13.mp4
Формат: MPEG-4
Профиль формата: Base Media / Version 2
Идентификатор кодека: mp42
Размер файла: 63,6 Мбайт
Продолжительность: 8 м. 41 с.
Общий поток: 1022 Кбит/сек
Дата кодирования: UTC 2013-08-06 20:02:44
Дата пометки: UTC 2013-08-06 20:02:44

Видео
Идентификатор: 1
Формат: AVC
Формат/Информация: Advanced Video Codec
Профиль формата: High@L3.2
Параметр CABAC формата: Да
Параметр ReFrames формата: 4 кадра
Параметр GOP формата: M=1, N=50
Идентификатор кодека: avc1
Идентификатор кодека/Информация: Advanced Video Coding
Продолжительность: 8 м. 41 с.
Продолжительность оригинала: 8 м. 42 с.
Вид битрейта: Переменный
Битрейт: 894 Кбит/сек
Ширина: 1366 пикселей
Высота: 768 пикселей
Соотношение сторон: 16:9
Режим частоты кадров: Постоянный
Частота кадров: 10,000 кадров/сек
Цветовое пространство: YUV
Субдискретизация насыщенности: 4:2:0
Битовая глубина: 8 бит
Тип развёртки: Прогрессивная
Бит/(Пиксели*Кадры): 0.085
Размер потока: 55,6 Мбайт (88%)
Размер потока оригинала: 55,6 Мбайт (88%)
Язык: English
Дата кодирования: UTC 2013-08-06 20:02:44
Дата пометки: UTC 2013-08-06 20:02:44
mdhd_Duration: 522020
Основные цвета: BT.709
Характеристики трансфера: BT.709
Коэффициенты матрицы: BT.709

Аудио
Идентификатор: 2
Формат: AAC
Формат/Информация: Advanced Audio Codec
Профиль формата: LC
Идентификатор кодека: 40
Продолжительность: 8 м. 41 с.
Продолжительность оригинала: 8 м. 41 с.
Вид битрейта: Постоянный
Битрейт: 125 Кбит/сек
Каналы: 2 канала
Расположение каналов: Front: L R
Частота: 44,1 КГц
Метод сжатия: С потерями
Размер потока: 7,80 Мбайт (12%)
Размер потока оригинала: 7,80 Мбайт (12%)
Язык: English
Дата кодирования: UTC 2013-08-06 20:02:44
Дата пометки: UTC 2013-08-06 20:02:44
mdhd_Duration: 522005
Скриншоты:



Время раздачи: 24/7

Постеры

Соцсети

 

Статистика

Автор: Таточка
Добавлен: 13 фев 2014, 20:23
Размер: 845.37 МБ
Размер: 886 439 137 байт
Сидеров: 11
Личеров: 4
Скачали: 1
Здоровье: 100%
Раздающих: 100%
Скорость скачивания: 0 байт/сек
Скорость раздачи: 0 байт/сек
Последний сидер: 7 месяцев 7 дней 8 часов 46 минут 39 секунд назад
Последний личер: 7 месяцев 7 дней 8 часов 46 минут 39 секунд назад
Приватный: Нет (DHT включён)
Школьникам, студентам и педагогам Скачать торрент
Скачать торрент
[ Размер 27.38 КБ / Просмотров 1 ]

Поделиться



  • Похожие торренты
    Ответы
    Просмотры
    Последнее сообщение

Вернуться в Школьникам, студентам и педагогам