Видео


Сообщение

Видео Учебные фильмы по предмету обж / Бжд для вузов тема взрывы [1959, Учебный Фильм для Вузов, VHSRip, RUS] (Видеоурок)

Сообщение Таточка » 13 фев 2014, 20:24

Учебные фильмы по предмету обж / Бжд для вузов тема взрывы

Страна: СССР
Тематика: Учебный Фильм для Вузов
Тип раздаваемого материала: Видеоурок
Продолжительность: ~ 00:02:49 * 7
Год выпуска: 1959

Язык: Русский
Перевод: Не требуется

Описание: Данная подборка мини фильмов рассказывает про различные виды оружия и когда оно было применено.
Материал прекрастно подходит для занятий по предмету ОБЖ или БЖД и других подобных предметов кому надо забирайте =)

Качество: VHSRip
Формат: AVI
Видео кодек: XviD
Аудио кодек: PCM
Видео: 320x240 (1.33:1), 15 fps, Cinepak by Radius YUV 4:2:2 ~1593 kbps avg, 1.38 bit/pixel
Аудио: 22.050 kHz, Microsoft PCM, 1 ch, ~176.40 kbps avg
MI
Код: Выделить всё
Общее
Полное имя                               : D:\Рипы выкладка [Deadmauvlad]\Учебные фильмы по предмету обж_ Бжд для вузов тема взрывы.Deadmauvlad\06.11.55.avi
Формат                                   : AVI
Формат/Информация                        : Audio Video Interleave
Настройки формата                        : rec
Размер файла                             : 35,9 Мбайт
Продолжительность                        : 2 м. 49 с.
Общий поток                              : 1774 Кбит/сек
Примечание                               : Compressed with Adobe Premiere 4.0 / Settings: Interleave = 1 /  Requested Data Rate = 220(CDROM) /  Recompress = Threshold: 5% /  Keyframes: every 30 frames /  Still Optimize ON /  /  Fields = Full Frame /

Видео
Идентификатор                            : 0
Формат                                   : Cinepack
Идентификатор кодека                     : cvid
Продолжительность                        : 2 м. 49 с.
Битрейт                                  : 1563 Кбит/сек
Ширина                                   : 320 пикселей
Высота                                   : 240 пикселей
Соотношение сторон                       : 4:3
Частота кадров                           : 15,000 кадров/сек
Бит/(Пиксели*Кадры)                      : 1.357
Размер потока                            : 31,6 Мбайт (88%)

Аудио
Идентификатор                            : 1
Формат                                   : PCM
Параметр Sign формата                    : Unsigned
Идентификатор кодека                     : 1
Продолжительность                        : 2 м. 49 с.
Вид битрейта                             : Постоянный
Битрейт                                  : 176,4 Кбит/сек
Каналы                                   : 1 канал
Частота                                  : 22,05 КГц
Битовая глубина                          : 8 бит
Размер потока                            : 3,57 Мбайт (10%)
Продолжительность промежутка             : 67  мс. (1,00 видеокадр)
Время предзагрузки промежутка            : 732  мс.
Скриншоты


Релиз Автор оцифровки Deadmauvlad / TooaPse

Постеры

Соцсети

 

Статистика

Автор: Таточка
Добавлен: 13 фев 2014, 20:24
Размер: 300.94 МБ
Размер: 315 560 242 байт
Сидеров: 282
Личеров: 3
Скачали: 0
Здоровье: 100%
Раздающих: 100%
Скорость скачивания: 0 байт/сек
Скорость раздачи: 0 байт/сек
Последний сидер: 5 месяцев 17 дней 16 часов 28 минут 32 секунды назад
Последний личер: 5 месяцев 17 дней 16 часов 28 минут 32 секунды назад
Приватный: Нет (DHT включён)
Школьникам, студентам и педагогам Скачать торрент
Скачать торрент
[ Размер 12.9 КБ / Просмотров 6 ]

Поделиться



Вернуться в Школьникам, студентам и педагогам