Видео


Сообщение

Видео Метеорология для яхтсменов [1992, метеорология, яхтинг, VHSRip, ENG] (Видеоурок)

Сообщение Nik » 17 фев 2014, 23:53

метеорология для яхтсменов

Страна: США
Тематика: метеорология, яхтинг
Тип раздаваемого материала: Видеоурок
Продолжительность: 01:30:00
Год выпуска: 1992

Язык: Английский
Перевод: Отсутствует

Описание: метеорология для яхтсменов

Качество: VHSRip
Формат: AVI
Видео: DivX 4, 704x480, 29.970 fps, 1200 kbps
Аудио: MP3, 48 kHz, 2 ch, 128 kbps
медиаинфо
Format : AVI
Format/Info : Audio Video Interleave
File size : 866 MiB
Duration : 1h 30mn
Overall bit rate : 1 340 Kbps
Writing library : VirtualDub build 32839/release

Video
ID : 0
Format : MPEG-4 Visual
Format profile : Simple@L1
Format settings, BVOP : No
Format settings, QPel : No
Format settings, GMC : No warppoints
Format settings, Matrix : Default (H.263)
Codec ID : DIVX
Codec ID/Info : Project Mayo
Codec ID/Hint : DivX 4
Duration : 1h 30mn
Bit rate : 1 200 Kbps
Width : 704 pixels
Height : 480 pixels
Display aspect ratio : 4:3
Frame rate : 29.970 fps
Standard : NTSC
Color space : YUV
Chroma subsampling : 4:2:0
Bit depth : 8 bits
Scan type : Progressive
Bits/(Pixel*Frame) : 0.118
Stream size : 776 MiB (90%)
Writing library : avc2.0.11.1110

Audio
ID : 1
Format : MPEG Audio
Format version : Version 1
Format profile : Layer 3
Mode : Joint stereo
Mode extension : MS Stereo
Codec ID : 55
Codec ID/Hint : MP3
Duration : 1h 30mn
Bit rate mode : Constant
Bit rate : 128 Kbps
Channel(s) : 2 channels
Sampling rate : 48.0 KHz
Video delay : 7ms
Stream size : 82.7 MiB (10%)
Alignment : Split accross interleaves
Interleave, duration : 33 ms (1.00 video frame)
Interleave, preload duration : 500 ms
Скриншоты

bingbot - Лучшая благодарность поделиться ссылкой с друзьями в соц. сетях

Постеры

Соцсети

 

Статистика

Автор: Nik
Добавлен: 17 фев 2014, 23:53
Размер: 865.85 МБ
Размер: 907 914 346 байт
Сидеров: 4
Личеров: 2
Скачали: 1
Здоровье: 100%
Раздающих: 100%
Скорость скачивания: 0 байт/сек
Скорость раздачи: 0 байт/сек
Последний сидер: 5 месяцев 13 дней 3 часа 10 минут 19 секунд назад
Последний личер: 5 месяцев 13 дней 3 часа 10 минут 19 секунд назад
Приватный: Нет (DHT включён)
Школьникам, студентам и педагогам Скачать торрент
Скачать торрент
[ Размер 17.48 КБ / Просмотров 1 ]

Поделиться



Вернуться в Школьникам, студентам и педагогам