Метеорология для яхтсменов [1992, метеорология, яхтинг, VHSRip, ENG] (Видеоурок)

Образование, подготовка, тестирование и т.д.
Торрент Сидеров Личеров Размер
torrent_4474528.torrent
4 2 865.85 МБ
Аватара пользователя
Nik
Сообщения: 25935
Зарегистрирован: 05 ноя 2011, 22:02

Метеорология для яхтсменов [1992, метеорология, яхтинг, VHSRip, ENG] (Видеоурок)

Сообщение Nik » 17 фев 2014, 23:53

метеорология для яхтсменов

Страна: США
Тематика: метеорология, яхтинг
Тип раздаваемого материала: Видеоурок
Продолжительность: 01:30:00
Год выпуска: 1992

Язык: Английский
Перевод: Отсутствует

Описание: метеорология для яхтсменов

Качество: VHSRip
Формат: AVI
Видео: DivX 4, 704x480, 29.970 fps, 1200 kbps
Аудио: MP3, 48 kHz, 2 ch, 128 kbps
медиаинфо
Format : AVI
Format/Info : Audio Video Interleave
File size : 866 MiB
Duration : 1h 30mn
Overall bit rate : 1 340 Kbps
Writing library : VirtualDub build 32839/release

Video
ID : 0
Format : MPEG-4 Visual
Format profile : Simple@L1
Format settings, BVOP : No
Format settings, QPel : No
Format settings, GMC : No warppoints
Format settings, Matrix : Default (H.263)
Codec ID : DIVX
Codec ID/Info : Project Mayo
Codec ID/Hint : DivX 4
Duration : 1h 30mn
Bit rate : 1 200 Kbps
Width : 704 pixels
Height : 480 pixels
Display aspect ratio : 4:3
Frame rate : 29.970 fps
Standard : NTSC
Color space : YUV
Chroma subsampling : 4:2:0
Bit depth : 8 bits
Scan type : Progressive
Bits/(Pixel*Frame) : 0.118
Stream size : 776 MiB (90%)
Writing library : avc2.0.11.1110

Audio
ID : 1
Format : MPEG Audio
Format version : Version 1
Format profile : Layer 3
Mode : Joint stereo
Mode extension : MS Stereo
Codec ID : 55
Codec ID/Hint : MP3
Duration : 1h 30mn
Bit rate mode : Constant
Bit rate : 128 Kbps
Channel(s) : 2 channels
Sampling rate : 48.0 KHz
Video delay : 7ms
Stream size : 82.7 MiB (10%)
Alignment : Split accross interleaves
Interleave, duration : 33 ms (1.00 video frame)
Interleave, preload duration : 500 ms
Скриншоты
У вас нет необходимых прав для просмотра вложений в этом сообщении.

TOPIC_VIEWER - Лучшая благодарность поделиться ссылкой с друзьями в соц. сетях