XXII зимние Олимпийские игры. Лыжные гонки. Мужчины. 50 км. Масс-старт [Россия HD] [23.02] (2014) HDTV 1080i

Россия, все трансляции, записи 22 зимних олимпийских игр Сочи 2014г. [sochi.ru]
Торрент Сидеров Личеров Размер
torrent_338305.torrent
0 1 11.72 ГБ
Аватара пользователя
master
Сообщения: 14750
Зарегистрирован: 26 ноя 2011, 13:44

XXII зимние Олимпийские игры. Лыжные гонки. Мужчины. 50 км. Масс-старт [Россия HD] [23.02] (2014) HDTV 1080i

Сообщение master » 25 фев 2014, 21:55

XXII Зимние Олимпийские Игры 2014. Лыжные гонки. Мужчины. Масс-старт 50 км

Вид спорта: Лыжные гонки
Комментарий: Профессиональный
Язык комментариев: Русский (Дмитрий Губерниев и Сергей Крянин)
Описание: XXII Зимние Олимпийские Игры 2014. Лыжные гонки. Мужчины. Масс-старт 50 км.

Присутствует цветочная церемония!

Автор рипа: sanchez2011

Качество: HDTV
Формат: MPEG-TS
Видео кодек: AVC
Аудио кодек: MP2
Видео: MPEG4 Video (H264) 1920x1080 11Mbps 25fps
Аудио: MPEG Audio 48000Hz stereo 224kbps
Все результаты соревнований

Продолжительность: 02:22:47
General
ID : 1 (0x1)
Complete name : E:Олимпиада 2014XXII Зимние Олимпийские Игры 2014. 23.02.2014 Лыжные гонки. Мужчины. Масс-старт 50 км.ts
Format : MPEG-TS
File size : 11.7 GiB
Duration : 2h 22mn
Overall bit rate mode : Variable
Overall bit rate : 11.8 Mbps

Video
ID : 1901 (0x76D)
Menu ID : 1 (0x1)
Format : AVC
Format/Info : Advanced Video Codec
Format profile : High@L4.0
Format settings, CABAC : Yes
Format settings, ReFrames : 3 frames
Codec ID : 27
Duration : 2h 22mn
Bit rate : 10.9 Mbps
Width : 1 920 pixels
Height : 1 080 pixels
Display aspect ratio : 16:9
Frame rate : 25.000 fps
Standard : Component
Color space : YUV
Chroma subsampling : 4:2:0
Bit depth : 8 bits
Scan type : Interlaced
Scan order : Top Field First
Bits/(Pixel*Frame) : 0.211
Stream size : 10.9 GiB (93%)
Color primaries : BT.709
Transfer characteristics : BT.709
Matrix coefficients : BT.709

Audio
ID : 2901 (0xB55)
Menu ID : 1 (0x1)
Format : MPEG Audio
Format version : Version 1
Format profile : Layer 2
Codec ID : 3
Duration : 2h 22mn
Bit rate mode : Constant
Bit rate : 224 Kbps
Channel(s) : 2 channels
Sampling rate : 48.0 KHz
Compression mode : Lossy
Stream size : 229 MiB (2%)
Language : Russian
У вас нет необходимых прав для просмотра вложений в этом сообщении.